<svg xmlns="http://www.w3.org/2000/svg"><defs><font horiz-adv-x="1024"><font-face units-per-em="1024" ascent="960" descent="-64"/><glyph horiz-adv-x="512"/><glyph unicode="" d="M320.64 43.307c-139.307 66.133-239.36 201.6-254.507 362.027h-64c21.76-262.827 241.493-469.333 509.867-469.333 9.6 0 18.773.853 28.16 1.493l-162.56 162.773-56.96-56.96zm37.973 278.4c-8.107 0-15.573 1.067-22.4 3.627-6.613 2.347-12.373 5.76-17.067 10.027s-8.32 9.6-10.88 15.573c-2.56 6.187-3.84 12.8-3.84 20.053h-55.467c0-15.36 2.987-28.8 8.96-40.533s13.867-21.547 23.893-29.227c10.027-7.893 21.547-13.653 34.773-17.707 13.227-4.267 26.88-6.187 41.387-6.187 15.787 0 30.507 2.133 44.16 6.4s25.387 10.667 35.413 18.987 17.707 18.56 23.467 30.72c5.547 12.16 8.533 26.027 8.533 41.6 0 8.32-1.067 16.213-2.987 23.893-2.133 7.68-5.333 14.933-9.6 21.76-4.48 6.827-10.24 12.8-17.28 18.347-7.04 5.333-15.787 9.813-25.813 13.44 8.533 3.84 16 8.533 22.4 14.08s11.733 11.52 16 17.707c4.267 6.4 7.467 12.8 9.6 19.627s3.2 13.653 3.2 20.267c0 15.573-2.56 29.227-7.68 40.96s-12.373 21.547-21.76 29.44c-9.387 7.893-20.48 13.867-33.707 17.92-13.653 4.267-28.16 6.187-43.947 6.187-15.36 0-29.653-2.347-42.667-6.827s-24.107-10.88-33.493-18.987c-9.387-8.107-16.64-17.707-21.973-28.8s-7.893-23.253-7.893-36.267h55.467c0 7.253 1.28 13.653 3.84 19.2 2.56 5.76 6.187 10.667 10.667 14.507 4.48 4.053 10.027 7.253 16.213 9.387s13.013 3.413 20.267 3.413c17.067 0 29.653-4.48 37.973-13.227s12.373-21.12 12.373-36.907c0-7.68-1.067-14.507-3.413-20.693s-5.76-11.52-10.453-16-10.667-7.893-17.493-10.453c-7.04-2.56-15.36-3.84-24.747-3.84h-32.853v-43.733h32.853c9.387 0 17.92-1.067 25.387-3.2s13.867-5.333 19.2-10.027c5.333-4.48 9.387-10.24 12.373-17.067 2.773-6.827 4.267-14.933 4.267-24.32 0-17.28-4.907-30.507-14.933-39.68-9.6-8.96-23.04-13.44-40.32-13.44zm365.227 252.8c-13.44 14.08-29.653 24.96-48.427 32.64-18.987 7.68-39.68 11.52-62.507 11.52h-100.907v-341.333h97.92c23.68 0 45.013 3.84 64.427 11.52s35.84 18.56 49.493 32.64c13.653 14.08 24.32 31.147 31.573 50.987 7.467 19.84 11.093 42.24 11.093 66.987v16.853c0 24.747-3.84 46.933-11.307 66.987s-17.92 37.12-31.36 51.2zm-16.853-135.254c0-17.707-1.92-33.92-6.187-48-4.053-14.293-10.027-26.24-18.133-36.053s-18.133-17.28-30.293-22.613c-12.16-5.12-26.24-7.893-42.453-7.893h-38.613v246.187h41.6c30.72 0 53.973-9.813 70.187-29.227 16-19.627 24.107-47.787 24.107-84.907v-17.493zm-194.987 520.747c-9.6 0-18.773-.853-28.16-1.493l162.56-162.773 56.747 56.747c139.52-65.92 239.573-201.387 254.72-361.813h64c-21.76 262.827-241.493 469.333-509.867 469.333z"/><glyph unicode="" d="M512 874.667c47.147 0 85.333-38.187 85.333-85.333s-38.187-85.333-85.333-85.333-85.333 38.187-85.333 85.333 38.187 85.333 85.333 85.333zm384-298.667h-256v-554.667h-85.333v256h-85.333v-256h-85.333v554.667h-256v85.333h768v-85.333z"/><glyph unicode="" d="M170.667 533.333v-298.667h128v298.667h-128zm256 0v-298.667h128v298.667h-128zm-341.334-512h810.667v128h-810.667v-128zm597.334 512v-298.667h128v298.667h-128zm-192 384l-405.333-213.333v-85.333h810.667v85.333l-405.333 213.333z"/><glyph unicode="" d="M896 192v-42.667c0-47.147-38.187-85.333-85.333-85.333h-597.333c-47.147 0-85.333 38.187-85.333 85.333v597.333c0 47.147 38.187 85.333 85.333 85.333h597.333c47.147 0 85.333-38.187 85.333-85.333v-42.667h-384c-47.147 0-85.333-38.187-85.333-85.333v-341.333c0-47.147 38.187-85.333 85.333-85.333h384zm-384 85.333h426.667v341.333h-426.667v-341.333zm170.667 106.667c-35.413 0-64 28.587-64 64s28.587 64 64 64 64-28.587 64-64-28.587-64-64-64z"/><glyph unicode="" d="M128 746.667v-597.333c0-47.147 38.187-85.333 85.333-85.333h597.333c47.147 0 85.333 38.187 85.333 85.333v597.333c0 47.147-38.187 85.333-85.333 85.333h-597.333c-47.147 0-85.333-38.187-85.333-85.333zm512-170.667c0-70.827-57.387-128-128-128s-128 57.173-128 128c0 70.613 57.387 128 128 128s128-57.387 128-128zm-384-341.333c0 85.333 170.667 132.267 256 132.267s256-46.933 256-132.267v-42.667h-512v42.667z"/><glyph unicode="" d="M704 448c58.88 0 106.24 47.787 106.24 106.667s-47.36 106.667-106.24 106.667c-58.88 0-106.667-47.787-106.667-106.667s47.787-106.667 106.667-106.667zm-320 42.667c70.613 0 127.573 57.387 127.573 128s-56.96 128-127.573 128-128-57.387-128-128 57.387-128 128-128zm320-128c-78.293 0-234.667-39.253-234.667-117.333v-96h469.333v96c0 78.08-156.373 117.333-234.667 117.333zm-320 42.666c-99.627 0-298.667-49.92-298.667-149.333v-106.667h298.667v96c0 36.267 14.293 99.627 101.12 148.053-37.12 7.893-73.173 11.947-101.12 11.947z"/><glyph unicode="" d="M512 874.667c-235.733 0-426.667-190.933-426.667-426.667s190.933-426.667 426.667-426.667 426.667 190.933 426.667 426.667-190.933 426.667-426.667 426.667zm0-128c70.613 0 128-57.387 128-128 0-70.827-57.387-128-128-128s-128 57.173-128 128c0 70.613 57.387 128 128 128zm0-605.867c-106.88 0-200.747 54.613-256 137.387 1.067 84.693 170.88 131.413 256 131.413s254.72-46.72 256-131.413c-55.253-82.773-149.12-137.387-256-137.387z"/><glyph unicode="" d="M469.333 576h85.333v128h128v85.333h-128v128h-85.333v-128h-128v-85.333h128v-128zm-170.666-384c-47.147 0-84.907-38.187-84.907-85.333s37.76-85.333 84.907-85.333 85.333 38.187 85.333 85.333-38.187 85.333-85.333 85.333zm426.666 0c-47.147 0-84.907-38.187-84.907-85.333s37.76-85.333 84.907-85.333 85.333 38.187 85.333 85.333-38.187 85.333-85.333 85.333zm-419.2 138.667c0 1.92.427 3.627 1.28 5.12l38.4 69.547h317.867c32 0 59.947 17.707 74.667 43.947l164.693 299.093-74.667 40.96h-.213l-47.147-85.333-117.547-213.333h-299.307l-5.547 11.52-136.32 287.147-40.32 85.333h-139.307v-85.333h85.333l153.6-323.627-57.813-104.533c-6.613-12.373-10.453-26.24-10.453-41.173 0-47.147 38.187-85.333 85.333-85.333h512v85.333h-493.867c-5.973 0-10.667 4.693-10.667 10.667z"/><glyph unicode="" d="M938.667 715.947l-196.053 164.48-54.827-65.28 196.053-164.48 54.827 65.28zm-602.454 99.413l-54.827 65.28-196.053-164.48 54.827-65.28 196.053 164.48zm197.12-196.693h-64v-256l202.453-121.813 32.213 52.693-170.667 101.12v224zm-21.546 170.666c-212.267 0-383.787-171.947-383.787-384s171.52-384 383.787-384 384.213 171.947 384.213 384-171.947 384-384.213 384zm.213-682.666c-164.907 0-298.667 133.76-298.667 298.667s133.76 298.667 298.667 298.667 298.667-133.76 298.667-298.667-133.547-298.667-298.667-298.667z"/><glyph unicode="" d="M336.213 815.36l-54.827 65.28-196.053-164.48 54.827-65.28 196.053 164.48zm602.454-99.413l-196.053 164.48-54.827-65.28 196.053-164.48 54.827 65.28zm-426.88 73.386c-212.267 0-383.787-171.947-383.787-384s171.52-384 383.787-384 384.213 171.947 384.213 384-171.947 384-384.213 384zm.213-682.666c-164.907 0-298.667 133.76-298.667 298.667s133.76 298.667 298.667 298.667 298.667-133.76 298.667-298.667-133.547-298.667-298.667-298.667zm42.667 469.333h-85.333v-128h-128v-85.333h128v-128h85.333v128h128v85.333h-128v128z"/><glyph unicode="" d="M512 704c164.907 0 298.667-133.76 298.667-298.667 0-36.053-6.613-70.4-18.347-102.4l64.853-64.853c24.747 50.56 38.827 107.307 38.827 167.253 0 212.053-171.947 384-384.213 384-59.947 0-116.48-14.08-167.253-38.613l65.067-65.067c32 11.733 66.347 18.347 102.4 18.347zm426.667 11.947l-196.053 164.48-54.827-65.28 196.053-164.48 54.827 65.28zm-814.08 146.133l-54.4-54.187 56.747-56.747-47.36-39.68 60.587-60.587 47.36 39.68 34.133-34.133c-58.24-67.413-93.653-155.093-93.653-251.093 0-212.053 171.52-384 383.787-384 96.213 0 183.893 35.627 251.093 93.867l93.867-93.867 54.187 54.4-786.347 786.347zm578.133-686.72c-51.84-42.88-118.187-68.693-190.72-68.693-164.907 0-298.667 133.76-298.667 298.667 0 72.533 25.813 138.88 68.693 190.72l420.693-420.693zm-360.747 644.907l-60.587 60.587-36.267-30.507 60.587-60.587 36.267 30.507z"/><glyph unicode="" d="M938.667 715.947l-196.053 164.48-54.827-65.28 196.053-164.48 54.827 65.28zm-602.454 99.413l-54.827 65.28-196.053-164.48 54.827-65.28 196.053 164.48zm175.574-26.027c-212.267 0-383.787-171.947-383.787-384s171.52-384 383.787-384 384.213 171.947 384.213 384-171.947 384-384.213 384zm.213-682.666c-164.907 0-298.667 133.76-298.667 298.667s133.76 298.667 298.667 298.667 298.667-133.76 298.667-298.667-133.547-298.667-298.667-298.667zm-62.507 233.6l-90.453 90.453-45.227-45.227 135.68-135.68 256.213 256.213-45.227 45.227-210.987-210.987z"/><glyph unicode="" d="M256 192c0-23.467 19.2-42.667 42.667-42.667h42.667v-149.333c0-35.413 28.587-64 64-64s64 28.587 64 64v149.333h85.333v-149.333c0-35.413 28.587-64 64-64s64 28.587 64 64v149.333h42.667c23.467 0 42.667 19.2 42.667 42.667v426.667h-512v-426.667zm-106.667 426.667c-35.413 0-64-28.587-64-64v-298.667c0-35.413 28.587-64 64-64s64 28.587 64 64v298.667c0 35.413-28.587 64-64 64zm725.334 0c-35.413 0-64-28.587-64-64v-298.667c0-35.413 28.587-64 64-64s64 28.587 64 64v298.667c0 35.413-28.587 64-64 64zm-212.054 249.173l55.68 55.68c8.32 8.32 8.32 21.76 0 30.08s-21.76 8.32-30.08 0l-63.147-62.933c-34.133 16.853-72.32 26.667-113.067 26.667-40.96 0-79.36-9.813-113.707-26.88l-63.36 63.36c-8.32 8.32-21.76 8.32-30.08 0s-8.32-21.76 0-30.08l55.893-55.893c-63.36-46.72-104.747-121.813-104.747-206.507h512c0 84.907-41.6 160-105.387 206.507zm-235.946-121.173h-42.667v42.667h42.667v-42.667zm213.333 0h-42.667v42.667h42.667v-42.667z"/><glyph unicode="" d="M853.333 874.667h-682.667c-47.147 0-84.907-38.187-84.907-85.333l-.427-768 170.667 170.667h597.333c47.147 0 85.333 38.187 85.333 85.333v512c0 47.147-38.187 85.333-85.333 85.333zm-298.666-384h-85.333v256h85.333v-256zm0-170.667h-85.333v85.333h85.333v-85.333z"/><glyph unicode="" d="M810.667 448h-85.333v-128h-128v-85.333h213.333v213.333zm-512 128h128v85.333h-213.333v-213.333h85.333v128zm597.333 256h-768c-47.147 0-85.333-38.187-85.333-85.333v-597.333c0-47.147 38.187-85.333 85.333-85.333h768c47.147 0 85.333 38.187 85.333 85.333v597.333c0 47.147-38.187 85.333-85.333 85.333zm0-683.307h-768v598.613h768v-598.613z"/><glyph unicode="" d="M810.667 832h-597.333c-47.147 0-85.333-38.187-85.333-85.333v-597.333c0-47.147 38.187-85.333 85.333-85.333h597.333c47.147 0 85.333 38.187 85.333 85.333v597.333c0 47.147-38.187 85.333-85.333 85.333zm-426.667-597.333h-85.333v298.667h85.333v-298.667zm170.667 0h-85.333v426.667h85.333v-426.667zm170.666 0h-85.333v170.667h85.333v-170.667z"/><glyph unicode="" d="M810.667 832h-178.56c-17.493 49.493-64.427 85.333-120.107 85.333s-102.613-35.84-120.107-85.333h-178.56c-47.147 0-85.333-38.187-85.333-85.333v-597.333c0-47.147 38.187-85.333 85.333-85.333h597.333c47.147 0 85.333 38.187 85.333 85.333v597.333c0 47.147-38.187 85.333-85.333 85.333zm-298.667 0c23.467 0 42.667-18.987 42.667-42.667s-19.2-42.667-42.667-42.667-42.667 18.987-42.667 42.667 19.2 42.667 42.667 42.667zm85.333-597.333h-298.667v85.333h298.667v-85.333zm128 170.666h-426.667v85.333h426.667v-85.333zm0 170.667h-426.667v85.333h426.667v-85.333z"/><glyph unicode="" d="M810.667 832h-178.56c-17.493 49.493-64.427 85.333-120.107 85.333s-102.613-35.84-120.107-85.333h-178.56c-47.147 0-85.333-38.187-85.333-85.333v-597.333c0-47.147 38.187-85.333 85.333-85.333h597.333c47.147 0 85.333 38.187 85.333 85.333v597.333c0 47.147-38.187 85.333-85.333 85.333zm-298.667 0c23.467 0 42.667-18.987 42.667-42.667s-19.2-42.667-42.667-42.667-42.667 18.987-42.667 42.667 19.2 42.667 42.667 42.667zm0-170.667c70.613 0 128-57.387 128-128 0-70.827-57.387-128-128-128s-128 57.173-128 128c0 70.613 57.387 128 128 128zm256-512h-512v59.733c0 85.333 170.667 132.267 256 132.267s256-46.933 256-132.267v-59.733z"/><glyph unicode="" d="M810.667 832h-178.56c-17.493 49.493-64.427 85.333-120.107 85.333s-102.613-35.84-120.107-85.333h-178.56c-47.147 0-85.333-38.187-85.333-85.333v-597.333c0-47.147 38.187-85.333 85.333-85.333h597.333c47.147 0 85.333 38.187 85.333 85.333v597.333c0 47.147-38.187 85.333-85.333 85.333zm-256-640h-85.333v85.333h85.333v-85.333zm0 170.667h-85.333v256h85.333v-256zm-42.667 384c-23.467 0-42.667 18.987-42.667 42.667s19.2 42.667 42.667 42.667 42.667-18.987 42.667-42.667-19.2-42.667-42.667-42.667z"/><glyph unicode="" d="M810.667 832h-178.56c-17.493 49.493-64.427 85.333-120.107 85.333s-102.613-35.84-120.107-85.333h-178.56c-47.147 0-85.333-38.187-85.333-85.333v-597.333c0-47.147 38.187-85.333 85.333-85.333h597.333c47.147 0 85.333 38.187 85.333 85.333v597.333c0 47.147-38.187 85.333-85.333 85.333zm-298.667 0c23.467 0 42.667-18.987 42.667-42.667s-19.2-42.667-42.667-42.667-42.667 18.987-42.667 42.667 19.2 42.667 42.667 42.667zm170.667-512h-170.667v-128l-213.333 213.333 213.333 213.333v-128h170.667v-170.667z"/><glyph unicode="" d="M810.667 832h-178.56c-17.493 49.493-64.427 85.333-120.107 85.333s-102.613-35.84-120.107-85.333h-178.56c-47.147 0-85.333-38.187-85.333-85.333v-597.333c0-47.147 38.187-85.333 85.333-85.333h597.333c47.147 0 85.333 38.187 85.333 85.333v597.333c0 47.147-38.187 85.333-85.333 85.333zm-298.667 0c23.467 0 42.667-18.987 42.667-42.667s-19.2-42.667-42.667-42.667-42.667 18.987-42.667 42.667 19.2 42.667 42.667 42.667zm0-640l-213.333 213.333h128v170.667h170.667v-170.667h128l-213.333-213.333z"/><glyph unicode="" d="M810.667 832h-178.56c-17.493 49.493-64.427 85.333-120.107 85.333s-102.613-35.84-120.107-85.333h-178.56c-47.147 0-85.333-38.187-85.333-85.333v-597.333c0-47.147 38.187-85.333 85.333-85.333h597.333c47.147 0 85.333 38.187 85.333 85.333v597.333c0 47.147-38.187 85.333-85.333 85.333zm-298.667 0c23.467 0 42.667-18.987 42.667-42.667s-19.2-42.667-42.667-42.667-42.667 18.987-42.667 42.667 19.2 42.667 42.667 42.667zm-85.333-597.333l-170.667 170.667 60.373 60.373 110.293-110.293 280.96 280.96 60.373-60.373-341.333-341.333z"/><glyph unicode="" d="M512 704v-128l170.667 170.667-170.667 170.667v-128c-188.587 0-341.333-152.747-341.333-341.333 0-66.987 19.627-129.067 52.907-181.76l62.293 62.293c-18.987 35.627-29.867 76.16-29.867 119.467 0 141.44 114.56 256 256 256zm288.427-74.24l-62.293-62.293c18.987-35.627 29.867-76.16 29.867-119.467 0-141.44-114.56-256-256-256v128l-170.667-170.667 170.667-170.667v128c188.587 0 341.333 152.747 341.333 341.333 0 66.987-19.627 129.067-52.907 181.76z"/><glyph unicode="" d="M825.813 531.84c-29.013 146.773-158.507 257.493-313.813 257.493-123.307 0-230.187-69.973-283.733-172.16-128.213-13.867-228.267-122.453-228.267-254.507 0-141.44 114.56-256 256-256h554.667c117.76 0 213.333 95.573 213.333 213.333 0 112.64-87.68 203.947-198.187 211.84zm-228.48-126.507v-170.667h-170.667v170.667h-128l213.333 213.333 213.333-213.333h-128z"/><glyph unicode="" d="M768 874.667h-512c-47.147 0-85.333-38.187-85.333-85.333v-682.667c0-47.147 38.187-85.333 85.333-85.333h512c47.147 0 85.333 38.187 85.333 85.333v682.667c0 47.147-38.187 85.333-85.333 85.333zm-512-85.334h213.333v-341.333l-106.667 64-106.667-64v341.333z"/><glyph unicode="" d="M725.333 832h-426.667c-47.147 0-84.907-38.187-84.907-85.333l-.427-682.667 298.667 128 298.667-128v682.667c0 47.147-38.187 85.333-85.333 85.333z"/><glyph unicode="" d="M725.333 832h-426.667c-47.147 0-84.907-38.187-84.907-85.333l-.427-682.667 298.667 128 298.667-128v682.667c0 47.147-38.187 85.333-85.333 85.333zm0-640l-213.333 92.8-213.333-92.8v554.667h426.667v-554.667z"/><glyph unicode="" d="M853.333 618.667h-119.893c-19.2 33.28-45.653 62.08-77.44 83.627l69.333 69.333-60.373 60.373-92.8-92.8c-19.2 4.693-39.467 7.467-60.16 7.467s-40.96-2.773-60.16-7.467l-92.8 92.8-60.373-60.373 69.333-69.333c-31.787-21.547-58.24-50.347-77.44-83.627h-119.893v-85.333h89.173c-2.347-13.867-3.84-28.16-3.84-42.667v-42.667h-85.333v-85.333h85.333v-42.667c0-14.507 1.493-28.8 3.84-42.667h-89.173v-85.333h119.893c44.16-76.373 126.72-128 221.44-128s177.28 51.627 221.44 128h119.893v85.333h-89.173c2.347 13.867 3.84 28.16 3.84 42.667v42.667h85.333v85.333h-85.333v42.667c0 14.507-1.493 28.8-3.84 42.667h89.173v85.333zm-256-341.334h-170.667v85.333h170.667v-85.333zm0 170.667h-170.667v85.333h170.667v-85.333z"/><glyph unicode="" d="M810.667 618.667l-170.667-170.667h128c0-141.44-114.56-256-256-256-43.307 0-83.84 10.88-119.68 29.653l-62.293-62.293c52.907-33.067 114.987-52.693 181.973-52.693 188.587 0 341.333 152.747 341.333 341.333h128l-170.667 170.667zm-554.667-170.667c0 141.44 114.56 256 256 256 43.307 0 83.84-10.88 119.68-29.653l62.293 62.293c-52.907 33.067-114.987 52.693-181.973 52.693-188.587 0-341.333-152.747-341.333-341.333h-128l170.667-170.667 170.667 170.667h-128z"/><glyph unicode="" d="M768 874.667h-512c-47.147 0-85.333-38.187-85.333-85.333v-682.667c0-47.147 38.187-85.333 85.333-85.333h512c47.147 0 85.333 38.187 85.333 85.333v682.667c0 47.147-38.187 85.333-85.333 85.333zm-512-85.334h213.333v-341.333l-106.667 64-106.667-64v341.333z"/><glyph unicode="" d="M170.667 448h682.667v-256h-682.667zm682.666 341.333h-682.667c-47.147 0-84.907-38.187-84.907-85.333l-.427-512c0-47.147 38.187-85.333 85.333-85.333h682.667c47.147 0 85.333 38.187 85.333 85.333v512c0 47.147-38.187 85.333-85.333 85.333zm0-597.333h-682.667v256h682.667v-256zm0 426.667h-682.667v85.333h682.667v-85.333z"/><glyph unicode="" d="M128 405.333h341.333v426.667h-341.333v-426.667zm0-341.333h341.333v256h-341.333v-256zm426.667 0h341.333v426.667h-341.333v-426.667zm0 768v-256h341.333v256h-341.333z"/><glyph unicode="" d="M256 149.333c0-47.147 38.187-85.333 85.333-85.333h341.333c47.147 0 85.333 38.187 85.333 85.333v512h-512v-512zm554.667 640h-149.333l-42.667 42.667h-213.333l-42.667-42.667h-149.333v-85.333h597.333v85.333z"/><glyph unicode="" d="M597.333 874.667h-341.333c-47.147 0-84.907-38.187-84.907-85.333l-.427-682.667c0-47.147 37.76-85.333 84.907-85.333h512.427c47.147 0 85.333 38.187 85.333 85.333v512l-256 256zm85.334-682.667h-341.333v85.333h341.333v-85.333zm0 170.667h-341.333v85.333h341.333v-85.333zm-128 213.333v234.667l234.667-234.667h-234.667z"/><glyph unicode="" d="M853.333 405.333h-682.667c-23.467 0-42.667-19.2-42.667-42.667v-256c0-23.467 19.2-42.667 42.667-42.667h682.667c23.467 0 42.667 19.2 42.667 42.667v256c0 23.467-19.2 42.667-42.667 42.667zm-554.666-256c-47.147 0-85.333 38.187-85.333 85.333s38.187 85.333 85.333 85.333 85.333-38.187 85.333-85.333-38.187-85.333-85.333-85.333zm554.666 682.667h-682.667c-23.467 0-42.667-19.2-42.667-42.667v-256c0-23.467 19.2-42.667 42.667-42.667h682.667c23.467 0 42.667 19.2 42.667 42.667v256c0 23.467-19.2 42.667-42.667 42.667zm-554.666-256c-47.147 0-85.333 38.187-85.333 85.333s38.187 85.333 85.333 85.333 85.333-38.187 85.333-85.333-38.187-85.333-85.333-85.333z"/><glyph unicode="" d="M384 270.08l-177.92 177.92-60.373-60.373 238.293-238.293 512 512-60.373 60.373z"/><glyph unicode="" d="M768 661.333l-60.373 60.373-270.507-270.72 60.373-60.373 270.507 270.72zm181.12 60.374l-451.84-451.627-177.92 177.92-60.373-60.373 238.293-238.293 512 512-60.16 60.373zm-931.413-334.08l238.293-238.293 60.373 60.373-238.293 238.293-60.373-60.373z"/><glyph unicode="" d="M725.333 448h-213.333v-213.333h213.333v213.333zm-42.666 469.333v-85.333h-341.333v85.333h-85.333v-85.333h-42.667c-47.147 0-84.907-38.187-84.907-85.333l-.427-597.333c0-47.147 38.187-85.333 85.333-85.333h597.333c47.147 0 85.333 38.187 85.333 85.333v597.333c0 47.147-38.187 85.333-85.333 85.333h-42.667v85.333h-85.333zm128-768h-597.333v469.333h597.333v-469.333z"/><glyph unicode="" d="M430.293 295.04l60.373-60.373 213.333 213.333-213.333 213.333-60.373-60.373 110.293-110.293h-412.587v-85.333h412.587l-110.293-110.293zm380.374 536.96h-597.333c-47.147 0-85.333-38.187-85.333-85.333v-170.667h85.333v170.667h597.333v-597.333h-597.333v170.667h-85.333v-170.667c0-47.147 38.187-85.333 85.333-85.333h597.333c47.147 0 85.333 38.187 85.333 85.333v597.333c0 47.147-38.187 85.333-85.333 85.333z"/><glyph unicode="" d="M512 494.933c-25.813 0-46.933-21.12-46.933-46.933s21.12-46.933 46.933-46.933c26.027 0 46.933 21.12 46.933 46.933s-20.907 46.933-46.933 46.933zm0 379.734c-235.733 0-426.667-190.933-426.667-426.667 0-235.52 190.933-426.667 426.667-426.667s426.667 191.147 426.667 426.667c0 235.733-190.933 426.667-426.667 426.667zm93.44-520.107l-349.44-162.56 162.56 349.44 349.44 162.56-162.56-349.44z"/><glyph unicode="" d="M874.667 490.667h-64v170.667c0 47.147-38.187 85.333-85.333 85.333h-170.667v64c0 58.88-47.787 106.667-106.667 106.667s-106.667-47.787-106.667-106.667v-64h-170.667c-47.147 0-84.907-38.187-84.907-85.333l-.213-162.133h63.787c63.573 0 115.2-51.627 115.2-115.2s-51.627-115.2-115.2-115.2h-63.787l-.213-162.133c0-47.147 38.187-85.333 85.333-85.333h162.133v64c0 63.573 51.627 115.2 115.2 115.2s115.2-51.627 115.2-115.2v-64h162.133c47.147 0 85.333 38.187 85.333 85.333v170.667h64c58.88 0 106.667 47.787 106.667 106.667s-47.787 106.667-106.667 106.667z"/><glyph unicode="" d="M626.987 230.187c-31.787-24.533-72.533-38.187-114.987-38.187s-83.2 13.653-114.987 38.187c-9.173 7.253-22.613 5.547-29.867-3.84s-5.547-22.613 3.84-29.867c39.04-30.293 89.173-47.147 141.013-47.147s101.973 16.853 141.013 47.147c9.387 7.253 11.093 20.693 3.84 29.867-7.253 9.387-20.693 11.093-29.867 3.84zm-221.654 196.48c0-23.564-19.103-42.667-42.667-42.667s-42.667 19.103-42.667 42.667 19.103 42.667 42.667 42.667 42.667-19.103 42.667-42.667zm106.667 533.333c-282.667 0-512-229.333-512-512s229.333-512 512-512 512 229.333 512 512-229.333 512-512 512zm339.627-632.32c-46.507-159.573-182.187-275.413-343.04-275.413-161.067 0-296.96 116.267-343.253 276.267-50.773 4.267-90.667 50.347-90.667 107.093 0 54.187 36.48 98.773 83.84 106.453v.213c89.173 62.507 162.347 148.907 174.72 215.467l.213-.213v.64c57.813-112 268.8-221.44 504.533-215.893 4.267.64 8.32 1.493 12.587 1.493 54.4 0 98.56-48.427 98.56-108.16.213-59.307-43.52-107.52-97.493-107.947zm-147.627 98.987c0-23.564-19.103-42.667-42.667-42.667s-42.667 19.103-42.667 42.667 19.103 42.667 42.667 42.667 42.667-19.103 42.667-42.667z"/><glyph unicode="" d="M512 49.067l-61.867 56.107c-219.733 199.467-364.8 331.093-364.8 492.16 0 131.627 103.04 234.667 234.667 234.667 74.24 0 145.493-34.56 192-88.96 46.507 54.4 117.76 88.96 192 88.96 131.627 0 234.667-103.04 234.667-234.667 0-161.067-145.067-292.693-364.8-492.16l-61.867-56.107z"/><glyph unicode="" d="M704 832c-74.24 0-145.493-34.56-192-88.96-46.507 54.4-117.76 88.96-192 88.96-131.627 0-234.667-103.04-234.667-234.667 0-161.067 145.067-292.693 364.8-492.16l61.867-56.107 61.867 56.107c219.733 199.467 364.8 331.093 364.8 492.16 0 131.627-103.04 234.667-234.667 234.667zm-187.52-663.68l-4.48-4.053-4.48 4.053c-202.88 184.107-336.853 305.707-336.853 429.013 0 85.12 64.213 149.333 149.333 149.333 65.707 0 129.707-42.453 152.107-100.693h79.573c22.613 58.24 86.613 100.693 152.32 100.693 85.12 0 149.333-64.213 149.333-149.333 0-123.307-133.973-244.907-336.853-429.013z"/><glyph unicode="" d="M853.333 124.373v494.293l-256 256h-341.333c-47.147 0-84.907-38.187-84.907-85.333l-.427-682.667c0-47.147 37.76-85.333 84.907-85.333h512.427c18.987 0 36.48 6.4 50.56 17.067l-189.227 189.227c-33.493-22.4-73.813-35.627-117.333-35.627-117.76 0-213.333 95.573-213.333 213.333s95.573 213.333 213.333 213.333 213.333-95.573 213.333-213.333c0-43.52-13.227-83.84-35.413-117.547l163.413-163.413zm-469.333 280.96c0-70.613 57.387-128 128-128s128 57.387 128 128-57.387 128-128 128-128-57.387-128-128z"/><glyph unicode="" d="M469.333 704c58.88 0 112.213-23.893 150.827-62.507l-108.16-108.16h256v256l-87.467-87.467c-53.973 53.973-128.64 87.467-211.2 87.467-150.4 0-274.56-111.36-295.253-256h86.187c19.84 97.28 105.813 170.667 209.067 170.667zm240.64-389.76c28.373 38.613 47.573 84.267 54.613 133.76h-86.187c-19.84-97.28-105.813-170.667-209.067-170.667-58.88 0-112.213 23.893-150.827 62.507l108.16 108.16h-256v-256l87.467 87.467c53.973-53.973 128.64-87.467 211.2-87.467 66.133 0 127.147 21.76 176.64 58.24l207.36-207.147 63.573 63.573-206.933 207.573z"/><glyph unicode="" d="M384 661.333h-85.333v-85.333h85.333v85.333zm0-170.666h-85.333v-85.333h85.333v85.333zm0 341.333c-47.147 0-85.333-38.187-85.333-85.333h85.333v85.333zm170.667-512h-85.333v-85.333h85.333v85.333zm256 512v-85.333h85.333c0 47.147-38.187 85.333-85.333 85.333zm-256 0h-85.333v-85.333h85.333v85.333zm-170.667-597.333v85.333h-85.333c0-47.147 38.187-85.333 85.333-85.333zm426.667 170.666h85.333v85.333h-85.333v-85.333zm0 170.667h85.333v85.333h-85.333v-85.333zm0-341.333c47.147 0 85.333 38.187 85.333 85.333h-85.333v-85.333zm-597.334 426.666h-85.333v-512c0-47.147 38.187-85.333 85.333-85.333h512v85.333h-512v512zm426.667 85.334h85.333v85.333h-85.333v-85.333zm0-512h85.333v85.333h-85.333v-85.333z"/><glyph unicode="" d="M128 405.333h85.333v85.333h-85.333v-85.333zm0-170.666h85.333v85.333h-85.333v-85.333zm85.333-170.667v85.333h-85.333c0-47.147 38.187-85.333 85.333-85.333zm-85.333 512h85.333v85.333h-85.333v-85.333zm512-512h85.333v85.333h-85.333v-85.333zm170.667 768h-426.667c-47.147 0-85.333-38.187-85.333-85.333v-426.667c0-47.147 38.187-85.333 85.333-85.333h426.667c47.147 0 85.333 38.187 85.333 85.333v426.667c0 47.147-38.187 85.333-85.333 85.333zm0-512h-426.667v426.667h426.667v-426.667zm-341.334-256h85.333v85.333h-85.333v-85.333zm-170.666 0h85.333v85.333h-85.333v-85.333z"/><glyph unicode="" d="M810.667 576h-170.667v256h-256v-256h-170.667l298.667-298.667 298.667 298.667zm-597.334-384v-85.333h597.333v85.333h-597.333z"/><glyph unicode="" d="M512 223.147l263.68-159.147-69.76 299.947 232.747 201.6-306.773 26.453-119.893 282.667-119.893-282.667-306.773-26.453 232.747-201.6-69.76-299.947z"/><glyph unicode="" d="M512 874.667c-235.733 0-426.667-190.933-426.667-426.667 0-235.52 190.933-426.667 426.667-426.667s426.667 191.147 426.667 426.667c0 235.733-190.933 426.667-426.667 426.667zm-170.667-661.334c-58.88 0-106.667 47.787-106.667 106.667s47.787 106.667 106.667 106.667 106.667-47.787 106.667-106.667-47.787-106.667-106.667-106.667zm64 405.334c0 58.88 47.787 106.667 106.667 106.667s106.667-47.787 106.667-106.667-47.787-106.667-106.667-106.667-106.667 47.787-106.667 106.667zm277.334-405.334c-58.88 0-106.667 47.787-106.667 106.667s47.787 106.667 106.667 106.667 106.667-47.787 106.667-106.667-47.787-106.667-106.667-106.667z"/><glyph unicode="" d="M512 874.667c-235.733 0-426.667-190.933-426.667-426.667s190.933-426.667 426.667-426.667 426.667 190.933 426.667 426.667-190.933 426.667-426.667 426.667zm42.667-725.334h-85.333v85.333h85.333v-85.333zm88.106 330.454l-38.187-39.253c-30.72-30.72-49.92-56.533-49.92-120.533h-85.333v21.333c0 47.147 19.2 89.813 49.92 120.747l53.12 53.76c15.36 15.36 24.96 36.693 24.96 60.16 0 47.147-38.187 85.333-85.333 85.333s-85.333-38.187-85.333-85.333h-85.333c0 94.293 76.373 170.667 170.667 170.667s170.667-76.373 170.667-170.667c0-37.547-15.147-71.467-39.893-96.213z"/><glyph unicode="" d="M622.293 618.667l-110.293-110.293-110.293 110.293-60.373-60.373 110.293-110.293-110.293-110.293 60.373-60.373 110.293 110.293 110.293-110.293 60.373 60.373-110.293 110.293 110.293 110.293-60.373 60.373zm-110.293 256c-235.733 0-426.667-190.933-426.667-426.667s190.933-426.667 426.667-426.667 426.667 190.933 426.667 426.667-190.933 426.667-426.667 426.667zm0-768c-188.16 0-341.333 153.173-341.333 341.333s153.173 341.333 341.333 341.333 341.333-153.173 341.333-341.333-153.173-341.333-341.333-341.333z"/><glyph unicode="" d="M554.453 832c-212.267 0-383.787-171.947-383.787-384h-128l166.187-166.187 2.987-6.187 172.16 172.373h-128c0 164.907 133.76 298.667 298.667 298.667s298.667-133.76 298.667-298.667-133.76-298.667-298.667-298.667c-82.56 0-157.013 33.707-210.987 87.68l-60.373-60.373c69.333-69.547 165.12-112.64 271.147-112.64 212.267 0 384.213 171.947 384.213 384s-171.947 384-384.213 384zm-42.453-213.333v-213.333l182.613-108.373 30.72 51.84-149.333 88.533v181.333h-64z"/><glyph unicode="" d="M426.667 106.667v256h170.667v-256h213.333v341.333h128l-426.667 384-426.667-384h128v-341.333z"/><glyph unicode="" d="M768 618.667h-42.667v85.333c0 117.76-95.573 213.333-213.333 213.333s-213.333-95.573-213.333-213.333v-85.333h-42.667c-47.147 0-85.333-38.187-85.333-85.333v-426.667c0-47.147 38.187-85.333 85.333-85.333h512c47.147 0 85.333 38.187 85.333 85.333v426.667c0 47.147-38.187 85.333-85.333 85.333zm-256-384c-47.147 0-85.333 38.187-85.333 85.333s38.187 85.333 85.333 85.333 85.333-38.187 85.333-85.333-38.187-85.333-85.333-85.333zm132.267 384h-264.533v85.333c0 72.96 59.307 132.267 132.267 132.267s132.267-59.307 132.267-132.267v-85.333z"/><glyph unicode="" d="M512 874.667c-235.733 0-426.667-190.933-426.667-426.667s190.933-426.667 426.667-426.667 426.667 190.933 426.667 426.667-190.933 426.667-426.667 426.667zm42.667-640h-85.333v256h85.333v-256zm0 341.333h-85.333v85.333h85.333v-85.333z"/><glyph unicode="" d="M469.333 234.667h85.333v256h-85.333v-256zm42.667 640c-235.733 0-426.667-190.933-426.667-426.667s190.933-426.667 426.667-426.667 426.667 190.933 426.667 426.667-190.933 426.667-426.667 426.667zm0-768c-188.16 0-341.333 153.173-341.333 341.333s153.173 341.333 341.333 341.333 341.333-153.173 341.333-341.333-153.173-341.333-341.333-341.333zm-42.667 469.333h85.333v85.333h-85.333v-85.333z"/><glyph unicode="" d="M896 831.573h-768c-47.147 0-85.333-38.187-85.333-85.333v-170.24h85.333v171.093h768v-598.613h-768v171.52h-85.333v-171.093c0-47.147 38.187-84.48 85.333-84.48h768c47.147 0 85.333 37.547 85.333 84.48v597.333c0 47.147-38.187 85.333-85.333 85.333zm-426.667-554.24l170.667 170.667-170.667 170.667v-128h-426.667v-85.333h426.667v-128z"/><glyph unicode="" d="M753.28 621.653l-241.28 241.493-241.28-241.493c-133.333-133.333-133.333-349.44 0-482.773 66.56-66.56 154.027-100.053 241.28-100.053s174.72 33.28 241.28 100.053c133.333 133.333 133.333 349.44 0 482.773zm-241.28-497.28c-68.48 0-132.693 26.667-180.907 75.093-48.427 48.213-75.093 112.427-75.093 180.907s26.667 132.693 75.093 181.12l180.907 180.907v-618.027z"/><glyph unicode="" d="M752.427 710.613c-15.573 21.76-40.96 36.053-69.76 36.053l-469.333-.427c-47.147 0-85.333-37.76-85.333-84.907v-426.667c0-47.147 38.187-84.907 85.333-84.907l469.333-.427c28.8 0 54.187 14.293 69.76 36.053l186.24 262.613-186.24 262.613z"/><glyph unicode="" d="M752.427 710.613c-15.573 21.76-40.96 36.053-69.76 36.053l-469.333-.427c-47.147 0-85.333-37.76-85.333-84.907v-426.667c0-47.147 38.187-84.907 85.333-84.907l469.333-.427c28.8 0 54.187 14.293 69.76 36.053l186.24 262.613-186.24 262.613zm-69.76-475.946h-469.333v426.667h469.333l151.253-213.333-151.253-213.333z"/><glyph unicode="" d="M511.787 874.667c-235.733 0-426.453-190.933-426.453-426.667s190.72-426.667 426.453-426.667c235.733 0 426.88 190.933 426.88 426.667s-191.147 426.667-426.88 426.667zm295.466-256h-125.867c-13.867 53.333-33.28 104.533-58.88 151.893 78.507-26.88 143.787-81.28 184.747-151.893zm-295.253 169.173c35.627-51.2 63.36-108.16 81.493-169.173h-162.987c18.133 61.013 45.867 117.973 81.493 169.173zm-330.24-425.173c-7.04 27.307-11.093 55.893-11.093 85.333s4.053 58.027 11.093 85.333h144c-3.413-27.947-5.76-56.32-5.76-85.333s2.347-57.387 5.973-85.333h-144.213zm34.773-85.334h125.867c13.867-53.333 33.28-104.533 58.88-152.107-78.507 26.88-143.787 81.493-184.747 152.107zm125.867 341.334h-125.867c40.96 70.613 106.24 125.227 184.747 152.107-25.6-47.573-45.013-98.773-58.88-152.107zm169.6-510.507c-35.413 51.2-63.147 108.16-81.493 169.173h162.987c-18.347-61.013-46.08-117.973-81.493-169.173zm99.84 254.507h-199.68c-4.053 27.947-6.827 56.32-6.827 85.333s2.773 57.387 6.827 85.333h199.68c4.053-27.947 6.827-56.32 6.827-85.333s-2.773-57.387-6.827-85.333zm10.88-237.227c25.6 47.573 45.013 98.56 58.88 151.893h125.867c-41.173-70.613-106.453-125.013-184.747-151.893zm75.307 237.227c3.413 27.947 5.973 56.32 5.973 85.333s-2.347 57.387-5.973 85.333h144c7.04-27.307 11.307-55.893 11.307-85.333s-4.053-58.027-11.307-85.333h-144z"/><glyph unicode="" d="M810.667 149.333h-597.333v597.333h298.667v85.333h-298.667c-47.147 0-85.333-38.187-85.333-85.333v-597.333c0-47.147 38.187-85.333 85.333-85.333h597.333c47.147 0 85.333 38.187 85.333 85.333v298.667h-85.333v-298.667zm-213.334 682.667v-85.333h152.96l-419.413-419.413 60.373-60.373 419.413 419.413v-152.96h85.333v298.667h-298.667z"/><glyph unicode="" d="M128 405.333h85.333v85.333h-85.333v-85.333zm0-170.666h85.333v85.333h-85.333v-85.333zm0 341.333h85.333v85.333h-85.333v-85.333zm170.667-170.667h597.333v85.333h-597.333v-85.333zm0-170.666h597.333v85.333h-597.333v-85.333zm0 426.666v-85.333h597.333v85.333h-597.333z"/><glyph unicode="" d="M768 618.667h-42.667v85.333c0 117.76-95.573 213.333-213.333 213.333s-213.333-95.573-213.333-213.333v-85.333h-42.667c-47.147 0-85.333-38.187-85.333-85.333v-426.667c0-47.147 38.187-85.333 85.333-85.333h512c47.147 0 85.333 38.187 85.333 85.333v426.667c0 47.147-38.187 85.333-85.333 85.333zm-256-384c-47.147 0-85.333 38.187-85.333 85.333s38.187 85.333 85.333 85.333 85.333-38.187 85.333-85.333-38.187-85.333-85.333-85.333zm132.267 384h-264.533v85.333c0 72.96 59.307 132.267 132.267 132.267s132.267-59.307 132.267-132.267v-85.333z"/><glyph unicode="" d="M512 234.667c47.147 0 85.333 38.187 85.333 85.333s-38.187 85.333-85.333 85.333-85.333-38.187-85.333-85.333 38.187-85.333 85.333-85.333zm256 384h-42.667v85.333c0 117.76-95.573 213.333-213.333 213.333s-213.333-95.573-213.333-213.333h81.067c0 72.96 59.307 132.267 132.267 132.267s132.267-59.307 132.267-132.267v-85.333h-388.267c-47.147 0-85.333-38.187-85.333-85.333v-426.667c0-47.147 38.187-85.333 85.333-85.333h512c47.147 0 85.333 38.187 85.333 85.333v426.667c0 47.147-38.187 85.333-85.333 85.333zm0-512h-512v426.667h512v-426.667z"/><glyph unicode="" d="M768 618.667h-42.667v85.333c0 117.76-95.573 213.333-213.333 213.333s-213.333-95.573-213.333-213.333v-85.333h-42.667c-47.147 0-85.333-38.187-85.333-85.333v-426.667c0-47.147 38.187-85.333 85.333-85.333h512c47.147 0 85.333 38.187 85.333 85.333v426.667c0 47.147-38.187 85.333-85.333 85.333zm-256 217.6c72.96 0 132.267-59.307 132.267-132.267v-85.333h-260.267v85.333h-4.267c0 72.96 59.307 132.267 132.267 132.267zm256-729.6h-512v426.667h512v-426.667zm-256 128c47.147 0 85.333 38.187 85.333 85.333s-38.187 85.333-85.333 85.333-85.333-38.187-85.333-85.333 38.187-85.333 85.333-85.333z"/><glyph unicode="" d="M913.493 465.92l-383.787 383.787c-15.36 15.36-36.693 24.96-60.373 24.96h-298.667c-47.147 0-85.333-38.187-85.333-85.333v-298.667c0-23.68 9.6-45.013 25.173-60.373l384-384c15.36-15.36 36.693-24.96 60.16-24.96 23.68 0 45.013 9.6 60.373 24.96l298.667 298.667c15.36 15.573 24.96 36.907 24.96 60.373 0 23.68-9.6 45.013-25.173 60.587zm-678.826 195.413c-35.413 0-64 28.587-64 64s28.587 64 64 64 64-28.587 64-64-28.587-64-64-64zm502.186-352.853l-182.187-182.187-182.187 182.187c-19.2 19.413-31.147 46.08-31.147 75.52 0 58.88 47.787 106.667 106.667 106.667 29.44 0 56.32-11.947 75.52-31.36l31.147-31.147 31.147 31.147c19.413 19.413 46.08 31.36 75.52 31.36 58.88 0 106.667-47.787 106.667-106.667 0-29.44-11.947-56.107-31.147-75.52z"/><glyph unicode="" d="M853.333 704h-426.667v-256h-85.333v341.333h256v170.667h-341.333v-256h-85.333c-46.933 0-85.333-38.4-85.333-85.333v-512c0-46.933 38.4-85.333 85.333-85.333h682.667c46.933 0 85.333 38.4 85.333 85.333v512c0 46.933-38.4 85.333-85.333 85.333z"/><glyph unicode="" d="M597.333 874.667h-341.333c-47.147 0-84.907-38.187-84.907-85.333l-.427-682.667c0-47.147 37.76-85.333 84.907-85.333h512.427c47.147 0 85.333 38.187 85.333 85.333v512l-256 256zm85.334-597.334h-128v-128h-85.333v128h-128v85.333h128v128h85.333v-128h128v-85.333zm-128 298.667v234.667l234.667-234.667h-234.667z"/><glyph unicode="" d="M810.667 789.333h-597.333c-47.147 0-85.333-38.187-85.333-85.333v-512c0-47.147 38.187-85.333 85.333-85.333h170.667v85.333h-170.667v426.667h597.333v-426.667h-170.667v-85.333h170.667c47.147 0 85.333 38.187 85.333 85.333v512c0 47.147-38.187 85.333-85.333 85.333zm-298.667-256l-170.667-170.667h128v-256h85.333v256h128l-170.667 170.667z"/><glyph unicode="" d="M810.667 149.333h-597.333v597.333h298.667v85.333h-298.667c-47.147 0-85.333-38.187-85.333-85.333v-597.333c0-47.147 38.187-85.333 85.333-85.333h597.333c47.147 0 85.333 38.187 85.333 85.333v298.667h-85.333v-298.667zm-213.334 682.667v-85.333h152.96l-419.413-419.413 60.373-60.373 419.413 419.413v-152.96h85.333v298.667h-298.667z"/><glyph unicode="" d="M426.667 576h170.667v128h128l-213.333 213.333-213.333-213.333h128v-128zm-42.667-42.667h-128v128l-213.333-213.333 213.333-213.333v128h128v170.667zm597.333-85.333l-213.333 213.333v-128h-128v-170.667h128v-128l213.333 213.333zm-384-128h-170.667v-128h-128l213.333-213.333 213.333 213.333h-128v128z"/><glyph unicode="" d="M469.333 618.667c-70.613 0-128-57.387-128-128s57.387-128 128-128 128 57.387 128 128-57.387 128-128 128zm341.334 213.333h-597.333c-47.147 0-85.333-38.187-85.333-85.333v-597.333c0-47.147 38.187-85.333 85.333-85.333h597.333c47.147 0 85.333 38.187 85.333 85.333v597.333c0 47.147-38.187 85.333-85.333 85.333zm-60.374-682.667l-163.413 163.413c-33.707-22.187-74.027-35.413-117.547-35.413-117.76 0-213.333 95.573-213.333 213.333s95.573 213.333 213.333 213.333 213.333-95.573 213.333-213.333c0-43.52-13.227-83.84-35.413-117.547l163.413-163.413-60.373-60.373z"/><glyph unicode="" d="M853.333 789.333h-682.667c-47.147 0-84.907-38.187-84.907-85.333l-.427-512c0-47.147 38.187-85.333 85.333-85.333h682.667c47.147 0 85.333 38.187 85.333 85.333v512c0 47.147-38.187 85.333-85.333 85.333zm0-597.333h-682.667v256h682.667v-256zm0 426.667h-682.667v85.333h682.667v-85.333z"/><glyph unicode="" d="M853.333 746.667h-135.253l-78.08 85.333h-256l-78.08-85.333h-135.253c-47.147 0-85.333-38.187-85.333-85.333v-512c0-47.147 38.187-85.333 85.333-85.333h298.667v89.173c-120.96 20.48-213.333 125.653-213.333 252.16h85.333c0-94.08 76.587-170.667 170.667-170.667s170.667 76.587 170.667 170.667h85.333c0-126.507-92.373-231.68-213.333-252.16v-89.173h298.667c47.147 0 85.333 38.187 85.333 85.333v512c0 47.147-38.187 85.333-85.333 85.333zm-256-341.334c0-47.147-38.187-85.333-85.333-85.333s-85.333 38.187-85.333 85.333v170.667c0 47.147 38.187 85.333 85.333 85.333s85.333-38.187 85.333-85.333v-170.667z"/><glyph unicode="" d="M810.667 832h-42.667v85.333h-85.333v-85.333h-341.333v85.333h-85.333v-85.333h-42.667c-47.147 0-85.333-38.187-85.333-85.333v-597.333c0-47.147 38.187-85.333 85.333-85.333h597.333c47.147 0 85.333 38.187 85.333 85.333v597.333c0 47.147-38.187 85.333-85.333 85.333zm-298.667-128c70.613 0 128-57.387 128-128 0-70.827-57.387-128-128-128s-128 57.173-128 128c0 70.613 57.387 128 128 128zm256-512h-512v42.667c0 85.333 170.667 132.267 256 132.267s256-46.933 256-132.267v-42.667z"/><glyph unicode="" d="M810.24 469.333c14.507 0 29.013-1.28 43.093-3.2v493.867l-853.333-853.333h493.44c-1.92 14.08-3.2 28.16-3.2 42.667 0 176.64 143.36 320 320 320zm158.507-340.906c.853 6.827 1.493 13.653 1.493 20.907 0 7.04-.64 14.08-1.493 20.907l45.013 35.2c4.053 3.2 5.12 8.96 2.56 13.653l-42.667 73.813c-2.56 4.693-8.32 6.4-13.013 4.693l-53.12-21.333c-11.093 8.533-23.04 15.573-36.053 20.907l-7.893 56.533c-.853 5.12-5.333 8.96-10.667 8.96h-85.333c-5.333 0-9.813-3.84-10.453-8.96l-7.893-56.533c-13.013-5.333-24.96-12.587-36.053-20.907l-53.12 21.333c-4.907 1.92-10.453 0-13.013-4.693l-42.667-73.813c-2.773-4.693-1.493-10.453 2.56-13.653l45.013-35.2c-.853-6.827-1.493-13.867-1.493-20.907s.64-14.08 1.493-20.907l-45.013-35.2c-4.053-3.2-5.12-8.96-2.56-13.653l42.667-73.813c2.773-4.693 8.32-6.4 13.013-4.693l53.12 21.333c11.093-8.533 23.04-15.573 36.053-20.907l7.893-56.533c.853-5.12 5.333-8.96 10.453-8.96h85.333c5.333 0 9.6 3.84 10.453 8.96l7.893 56.533c13.013 5.333 24.96 12.587 36.053 20.907l53.12-21.333c4.907-1.92 10.453 0 13.013 4.693l42.667 73.813c2.773 4.693 1.493 10.453-2.56 13.653l-44.8 35.2zm-158.507-43.094c-35.413 0-64 28.587-64 64s28.587 64 64 64 64-28.587 64-64-28.587-64-64-64z"/><glyph unicode="" d="M554.667 661.333h-85.333v-85.333h85.333v85.333zm0-170.666h-85.333v-256h85.333v256zm170.666 426.24l-426.667.427c-47.147 0-85.333-38.187-85.333-85.333v-768c0-47.147 38.187-85.333 85.333-85.333h426.667c47.147 0 85.333 38.187 85.333 85.333v768c0 47.147-38.187 84.907-85.333 84.907zm0-767.574h-426.667v597.333h426.667v-597.333z"/><glyph unicode="" d="M512 708.267c49.493 0 89.6-40.107 89.6-89.6s-40.107-89.6-89.6-89.6-89.6 40.107-89.6 89.6 40.107 89.6 89.6 89.6zm0-384c126.933 0 260.267-62.08 260.267-89.6v-46.933h-520.533v46.933c0 27.52 133.333 89.6 260.267 89.6zm0 465.066c-94.293 0-170.667-76.373-170.667-170.667 0-94.08 76.373-170.667 170.667-170.667s170.667 76.587 170.667 170.667c0 94.293-76.373 170.667-170.667 170.667zm0-384c-113.707 0-341.333-56.96-341.333-170.667v-128h682.667v128c0 113.707-227.627 170.667-341.333 170.667z"/><glyph unicode="" d="M85.333 704h-85.333v-213.333h.427l-.427-384c0-47.147 38.187-85.333 85.333-85.333h768v85.333h-768v597.333zm853.334 85.333h-341.333l-85.333 85.333h-256c-47.147 0-84.907-38.187-84.907-85.333l-.427-512c0-47.147 38.187-85.333 85.333-85.333h682.667c47.147 0 85.333 38.187 85.333 85.333v426.667c0 47.147-38.187 85.333-85.333 85.333zm-640-469.333l192 256 149.333-192.213 106.667 128.213 149.333-192h-597.333z"/><glyph unicode="" d="M853.333 298.667c-53.12 0-104.533 8.533-152.32 24.32-14.72 4.693-31.573 1.28-43.307-10.453l-93.867-94.08c-120.96 61.44-219.52 160.213-281.173 280.96l93.867 94.293c11.733 11.733 15.147 28.587 10.453 43.307-15.787 47.787-24.32 99.2-24.32 152.32 0 23.68-18.987 42.667-42.667 42.667h-149.333c-23.467 0-42.667-18.987-42.667-42.667 0-400.64 324.693-725.333 725.333-725.333 23.68 0 42.667 18.987 42.667 42.667v149.333c0 23.68-18.987 42.667-42.667 42.667zm-341.333 533.333v-426.667l128 128h256v298.667h-384z"/><glyph unicode="" d="M512 832c-215.253 0-377.813-78.933-512-180.693l512-629.973 512 629.333c-134.187 101.547-296.747 181.333-512 181.333zm42.667-554.667h-85.333v256h85.333v-256zm-85.334 341.334v85.333h85.333v-85.333h-85.333z"/><glyph unicode="" d="M810.667 661.333h-341.333v-256h341.333v256zm85.333 170.667h-768c-47.147 0-85.333-38.187-85.333-85.333v-597.333c0-47.147 38.187-84.48 85.333-84.48h768c47.147 0 85.333 37.547 85.333 84.48v597.333c0 47.147-38.187 85.333-85.333 85.333zm0-683.307h-768v598.613h768v-598.613z"/><glyph unicode="" d="M810.667 789.333h-170.667l-336.853-538.88-111.147 197.547 192 341.333h-170.667l-192-341.333 192-341.333h170.667l336.853 538.88 111.147-197.547-192-341.333h170.667l192 341.333z"/><glyph unicode="" d="M810.667 618.667h-597.333c-70.613 0-128-57.387-128-128v-256h170.667v-170.667h512v170.667h170.667v256c0 70.613-57.387 128-128 128zm-128-469.334h-341.333v213.333h341.333v-213.333zm128 298.667c-23.68 0-42.667 18.987-42.667 42.667s18.987 42.667 42.667 42.667c23.68 0 42.667-18.987 42.667-42.667s-18.987-42.667-42.667-42.667zm-42.667 384h-512v-170.667h512v170.667z"/><glyph unicode="" d="M511.787 874.667c-235.733 0-426.453-190.933-426.453-426.667s190.72-426.667 426.453-426.667c235.733 0 426.88 190.933 426.88 426.667s-191.147 426.667-426.88 426.667zm.213-768c-188.587 0-341.333 152.747-341.333 341.333s152.747 341.333 341.333 341.333 341.333-152.747 341.333-341.333-152.747-341.333-341.333-341.333zm21.333 554.666h-64v-256l223.787-134.4 32.213 52.48-192 113.92z"/><glyph unicode="" d="M896 704h-85.333v-384h-554.667v-85.333c0-23.467 19.2-42.667 42.667-42.667h469.333l170.667-170.667v640c0 23.467-19.2 42.667-42.667 42.667zm-170.667-256v384c0 23.467-19.2 42.667-42.667 42.667h-554.667c-23.467 0-42.667-19.2-42.667-42.667v-597.333l170.667 170.667h426.667c23.467 0 42.667 19.2 42.667 42.667z"/><glyph unicode="" d="M768 234.667h-512v85.333h512v-85.333zm0 170.666h-512v85.333h512v-85.333zm0 170.667h-512v85.333h512v-85.333zm-640-554.667l64 64 64-64 64 64 64-64 64 64 64-64 64 64 64-64 64 64 64-64 64 64 64-64v853.333l-64-64-64 64-64-64-64 64-64-64-64 64-64-64-64 64-64-64-64 64-64-64-64 64v-853.333z"/><glyph unicode="" d="M853.333 704h-93.227c4.693 13.44 7.893 27.52 7.893 42.667 0 70.613-57.387 128-128 128-44.587 0-83.84-22.827-106.667-57.387l-21.333-29.013-21.333 29.013c-22.827 34.56-62.08 57.387-106.667 57.387-70.613 0-128-57.387-128-128 0-15.147 2.987-29.227 7.893-42.667h-93.227c-47.147 0-84.907-38.187-84.907-85.333l-.427-469.333c0-47.147 38.187-85.333 85.333-85.333h682.667c47.147 0 85.333 38.187 85.333 85.333v469.333c0 47.147-38.187 85.333-85.333 85.333zm-213.333 85.333c23.467 0 42.667-19.2 42.667-42.667s-19.2-42.667-42.667-42.667-42.667 19.2-42.667 42.667 19.2 42.667 42.667 42.667zm-256 0c23.467 0 42.667-19.2 42.667-42.667s-19.2-42.667-42.667-42.667-42.667 19.2-42.667 42.667 19.2 42.667 42.667 42.667zm469.333-640h-682.667v85.333h682.667v-85.333zm0 213.334h-682.667v256h216.747l-88.747-120.96 69.333-49.707 144 196.053 42.667-58.027 101.333-138.027 69.333 49.707-88.747 120.96h216.747v-256z"/><glyph unicode="" d="M42.667 64h938.667l-469.333 810.667-469.333-810.667zm512 128h-85.333v85.333h85.333v-85.333zm0 170.667h-85.333v170.667h85.333v-170.667z"/><glyph unicode="" d="M554.453 832c-212.267 0-383.787-171.947-383.787-384h-128l166.187-166.187 2.987-6.187 172.16 172.373h-128c0 164.907 133.76 298.667 298.667 298.667s298.667-133.76 298.667-298.667-133.76-298.667-298.667-298.667c-82.56 0-157.013 33.707-210.987 87.68l-60.373-60.373c69.333-69.547 165.12-112.64 271.147-112.64 212.267 0 384.213 171.947 384.213 384s-171.947 384-384.213 384zm-42.453-213.333v-213.333l182.613-108.373 30.72 51.84-149.333 88.533v181.333h-64z"/><glyph unicode="" d="M512 874.667c-164.907 0-298.667-133.76-298.667-298.667 0-224 298.667-554.667 298.667-554.667s298.667 330.667 298.667 554.667c0 164.907-133.76 298.667-298.667 298.667zm0-405.334c-58.88 0-106.667 47.787-106.667 106.667s47.787 106.667 106.667 106.667 106.667-47.787 106.667-106.667-47.787-106.667-106.667-106.667z"/><glyph unicode="" d="M511.787 874.667c-235.733 0-426.453-190.933-426.453-426.667s190.72-426.667 426.453-426.667c235.733 0 426.88 190.933 426.88 426.667s-191.147 426.667-426.88 426.667zm.213-768c-188.587 0-341.333 152.747-341.333 341.333s152.747 341.333 341.333 341.333 341.333-152.747 341.333-341.333-152.747-341.333-341.333-341.333zm21.333 554.666h-64v-256l223.787-134.4 32.213 52.48-192 113.92z"/><glyph unicode="" d="M661.333 362.667h-33.92l-11.733 11.733c41.813 48.427 66.987 111.36 66.987 180.267 0 153.173-124.16 277.333-277.333 277.333s-277.333-124.16-277.333-277.333 124.16-277.333 277.333-277.333c68.907 0 131.84 25.173 180.267 66.773l11.733-11.733v-33.707l213.333-212.907 63.573 63.573-212.907 213.333zm-256 0c-106.027 0-192 85.973-192 192s85.973 192 192 192 192-85.973 192-192-85.973-192-192-192z"/><glyph unicode="" d="M829.013 406.4c1.707 13.653 2.987 27.52 2.987 41.6s-1.28 27.947-2.987 41.6l90.24 70.613c8.107 6.4 10.453 17.92 5.12 27.307l-85.333 147.84c-5.333 9.173-16.427 13.013-26.027 9.173l-106.24-42.88c-21.973 16.853-46.08 31.147-72.107 42.027l-16 113.067c-1.92 10.027-10.667 17.92-21.333 17.92h-170.667c-10.667 0-19.413-7.893-21.12-17.92l-16-113.067c-26.027-10.88-50.133-24.96-72.107-42.027l-106.24 42.88c-9.6 3.627-20.693 0-26.027-9.173l-85.333-147.84c-5.333-9.173-2.987-20.693 5.12-27.307l90.027-70.613c-1.707-13.653-2.987-27.52-2.987-41.6s1.28-27.947 2.987-41.6l-90.027-70.613c-8.107-6.4-10.453-17.92-5.12-27.307l85.333-147.84c5.333-9.173 16.427-13.013 26.027-9.173l106.24 42.88c21.973-16.853 46.08-31.147 72.107-42.027l16-113.067c1.707-10.027 10.453-17.92 21.12-17.92h170.667c10.667 0 19.413 7.893 21.12 17.92l16 113.067c26.027 10.88 50.133 24.96 72.107 42.027l106.24-42.88c9.6-3.627 20.693 0 26.027 9.173l85.333 147.84c5.333 9.173 2.987 20.693-5.12 27.307l-90.027 70.613zm-317.013-107.733c-82.56 0-149.333 66.773-149.333 149.333s66.773 149.333 149.333 149.333 149.333-66.773 149.333-149.333-66.773-149.333-149.333-149.333z"/><glyph unicode="" d="M512 533.333c-47.147 0-85.333-38.187-85.333-85.333s38.187-85.333 85.333-85.333 85.333 38.187 85.333 85.333-38.187 85.333-85.333 85.333zm298.667 298.667h-597.333c-47.147 0-85.333-38.187-85.333-85.333v-597.333c0-47.147 38.187-85.333 85.333-85.333h597.333c47.147 0 85.333 38.187 85.333 85.333v597.333c0 47.147-38.187 85.333-85.333 85.333zm-74.667-384c0-9.813-.853-19.627-2.133-29.227l63.147-49.493c5.547-4.48 7.253-12.587 3.413-18.987l-59.733-103.467c-3.627-6.4-11.52-8.96-18.347-6.4l-74.453 30.08c-15.36-11.947-32.213-21.76-50.56-29.44l-11.093-79.147c-.853-7.04-7.04-12.587-14.507-12.587h-119.467c-7.467 0-13.653 5.547-14.72 12.587l-11.093 79.147c-18.133 7.467-34.987 17.493-50.56 29.44l-74.24-29.867c-6.827-2.56-14.507 0-18.347 6.4l-59.733 103.467c-3.84 6.4-2.133 14.507 3.413 18.987l63.147 49.28c-1.28 9.6-2.133 19.2-2.133 29.227 0 9.813.853 19.627 2.133 29.227l-63.147 49.28c-5.547 4.48-7.253 12.587-3.413 18.987l59.733 103.467c3.84 6.4 11.52 8.96 18.347 6.4l74.24-29.867c15.36 11.733 32.213 21.76 50.56 29.44l11.093 79.147c1.067 7.04 7.253 12.587 14.72 12.587h119.467c7.467 0 13.653-5.547 14.72-12.587l11.093-79.147c18.133-7.467 34.987-17.493 50.56-29.44l74.24 29.867c6.827 2.56 14.507 0 18.347-6.4l59.733-103.467c3.84-6.4 2.133-14.507-3.413-18.987l-63.147-49.493c1.28-9.387 2.133-19.2 2.133-29.013z"/><glyph unicode="" d="M597.333 448c0 47.147-38.187 85.333-85.333 85.333s-85.333-38.187-85.333-85.333 38.187-85.333 85.333-85.333 85.333 38.187 85.333 85.333zm-85.333 384c-212.053 0-384-171.947-384-384h-128l170.667-170.667 170.667 170.667h-128c0 164.907 133.76 298.667 298.667 298.667s298.667-133.76 298.667-298.667-133.76-298.667-298.667-298.667c-64.64 0-124.16 20.693-173.227 55.68l-60.373-61.227c64.853-49.92 145.707-79.787 233.6-79.787 212.053 0 384 171.947 384 384s-171.947 384-384 384z"/><glyph unicode="" d="M469.333-64h85.333v85.333h-85.333v-85.333zm-170.666 0h85.333v85.333h-85.333v-85.333zm341.333 0h85.333v85.333h-85.333v-85.333zm115.413 780.587l-243.413 243.413h-42.667v-323.627l-195.627 195.627-60.373-60.373 238.293-238.293-238.293-238.293 60.373-60.373 195.627 195.627v-323.627h42.667l243.413 243.413-183.04 183.253 183.04 183.253zm-200.746 80l80.213-80.213-80.213-80v160.213zm80.213-446.507l-80.213-80v160.213l80.213-80.213z"/><glyph unicode="" d="M298.667-64h85.333v85.333h-85.333v-85.333zm170.666 0h85.333v85.333h-85.333v-85.333zm170.667 0h85.333v85.333h-85.333v-85.333zm42.667 1023.573l-341.333.427c-47.147 0-85.333-38.187-85.333-85.333v-682.667c0-47.147 38.187-85.333 85.333-85.333h341.333c47.147 0 85.333 38.187 85.333 85.333v682.667c0 47.147-38.187 84.907-85.333 84.907zm0-682.24h-341.333v512h341.333v-512z"/><glyph unicode="" d="M896 832h-768c-47.147 0-85.333-38.187-85.333-85.333v-597.333c0-47.147 38.187-85.333 85.333-85.333h768c47.147 0 85.333 38.187 85.333 85.333v597.333c0 47.147-38.187 85.333-85.333 85.333zm0-683.307h-768v598.613h768v-598.613zm-554.667 128.64h106.667l64-64 64 64h106.667v106.667l64 64-64 64v106.667h-106.667l-64 64-64-64h-106.667v-106.667l-64-64 64-64v-106.667zm170.667 298.667c70.613 0 128-57.387 128-128s-57.387-128-128-128v256z"/><glyph unicode="" d="M331.52 671.573l-65.707 54.4-230.827-277.973 230.827-278.187 65.707 54.4-185.6 223.787 185.6 223.573zm-32.853-266.24h85.333v85.333h-85.333v-85.333zm426.666 85.334h-85.333v-85.333h85.333v85.333zm-256-85.334h85.333v85.333h-85.333v-85.333zm288.854 320.854l-65.707-54.4 185.6-223.787-185.6-223.573 65.707-54.4 230.827 277.973-230.827 278.187z"/><glyph unicode="" d="M512 746.667c-164.907 0-298.667-133.76-298.667-298.667h85.333c0 117.76 95.573 213.333 213.333 213.333s213.333-95.573 213.333-213.333h85.333c0 164.907-133.76 298.667-298.667 298.667zm42.667-396.374c37.547 16.427 64 53.973 64 97.707 0 58.88-47.787 106.667-106.667 106.667s-106.667-47.787-106.667-106.667c0-43.733 26.453-81.28 64-97.707v-140.587l-145.707-145.707 60.373-60.373 128 128 128-128 60.373 60.373-145.707 145.707v140.587zm-42.667 567.04c-259.2 0-469.333-210.133-469.333-469.333h85.333c0 212.053 171.947 384 384 384s384-171.947 384-384h85.333c0 259.2-210.133 469.333-469.333 469.333z"/><glyph unicode="" d="M213.333 874.667c0 23.467-18.987 42.667-42.667 42.667s-42.667-19.2-42.667-42.667v-170.667h-85.333v-256h256v256h-85.333v170.667zm170.667-597.334c0-55.68 35.84-102.613 85.333-120.107v-178.56h85.333v178.56c49.493 17.707 85.333 64.427 85.333 120.107v85.333h-256v-85.333zm-341.333 0c0-55.68 35.84-102.613 85.333-120.107v-178.56h85.333v178.56c49.493 17.707 85.333 64.427 85.333 120.107v85.333h-256v-85.333zm853.333 426.667v170.667c0 23.467-18.987 42.667-42.667 42.667s-42.667-19.2-42.667-42.667v-170.667h-85.333v-256h256v256h-85.333zm-341.333 170.667c0 23.467-18.987 42.667-42.667 42.667s-42.667-19.2-42.667-42.667v-170.667h-85.333v-256h256v256h-85.333v170.667zm170.666-597.334c0-55.68 35.84-102.613 85.333-120.107v-178.56h85.333v178.56c49.493 17.707 85.333 64.427 85.333 120.107v85.333h-256v-85.333z"/><glyph unicode="" d="M213.333 874.667c0 23.467-18.987 42.667-42.667 42.667s-42.667-19.2-42.667-42.667v-170.667h-85.333v-256h256v256h-85.333v170.667zm170.667-597.334c0-55.68 35.84-102.613 85.333-120.107v-178.56h85.333v178.56c49.493 17.707 85.333 64.427 85.333 120.107v85.333h-256v-85.333zm-341.333 0c0-55.68 35.84-102.613 85.333-120.107v-178.56h85.333v178.56c49.493 17.707 85.333 64.427 85.333 120.107v85.333h-256v-85.333zm853.333 426.667v170.667c0 23.467-18.987 42.667-42.667 42.667s-42.667-19.2-42.667-42.667v-170.667h-85.333v-256h256v256h-85.333zm-341.333 170.667c0 23.467-18.987 42.667-42.667 42.667s-42.667-19.2-42.667-42.667v-170.667h-85.333v-256h256v256h-85.333v170.667zm170.666-597.334c0-55.68 35.84-102.613 85.333-120.107v-178.56h85.333v178.56c49.493 17.707 85.333 64.427 85.333 120.107v85.333h-256v-85.333z"/><glyph unicode="" d="M768 661.333v128c0 47.147-38.187 85.333-85.333 85.333h-341.333c-47.147 0-85.333-38.187-85.333-85.333v-128h-42.667v-256l128-256v-128h341.333v128l128 256v256h-42.667zm-426.667 128h341.333v-128h-85.333v85.333h-42.667v-85.333h-85.333v85.333h-42.667v-85.333h-85.333v128z"/><glyph unicode="" d="M341.333 469.333c0 35.413-28.587 64-64 64s-64-28.587-64-64 28.587-64 64-64 64 28.587 64 64zm298.667 213.334c0 35.413-28.587 64-64 64h-128c-35.413 0-64-28.587-64-64s28.587-64 64-64h128c35.413 0 64 28.587 64 64zm-277.333-362.667c-35.413 0-64-28.587-64-64s28.587-64 64-64 64 28.587 64 64-28.587 64-64 64zm149.333 597.333c-258.773 0-469.333-210.56-469.333-469.333s210.56-469.333 469.333-469.333 469.333 210.56 469.333 469.333-210.56 469.333-469.333 469.333zm0-853.333c-211.84 0-384 172.373-384 384s172.16 384 384 384 384-172.373 384-384-172.16-384-384-384zm234.667 469.333c-35.413 0-64-28.587-64-64s28.587-64 64-64 64 28.587 64 64-28.587 64-64 64zm-85.334-213.333c-35.413 0-64-28.587-64-64s28.587-64 64-64 64 28.587 64 64-28.587 64-64 64z"/><glyph unicode="" d="M512.213 725.333l-85.547-106.667h170.667l-85.12 106.667zm255.787-192v-170.667l106.667 85.12-106.667 85.547zm-512 0l-106.667-85.547 106.667-85.12v170.667zm341.333-256h-170.667l85.547-106.667 85.12 106.667zm298.667 554.667h-768c-47.147 0-85.333-38.187-85.333-85.333v-597.333c0-47.147 38.187-85.333 85.333-85.333h768c47.147 0 85.333 38.187 85.333 85.333v597.333c0 47.147-38.187 85.333-85.333 85.333zm0-683.307h-768v598.613h768v-598.613z"/><glyph unicode="" d="M554.667 576h-85.333v-85.333h85.333v85.333zm170.666 0h-85.333v-85.333h85.333v85.333zm128-277.333c-53.12 0-104.32 8.533-152.32 24.32-14.72 4.693-31.573 1.28-43.307-10.453l-93.867-94.08c-120.96 61.44-219.52 160.213-281.173 280.96l93.867 94.08c11.733 11.733 15.147 28.587 10.453 43.307-15.787 48-24.32 99.413-24.32 152.533 0 23.68-18.987 42.667-42.667 42.667h-149.333c-23.68 0-42.667-18.987-42.667-42.667 0-400.64 324.693-725.333 725.333-725.333 23.68 0 42.667 18.987 42.667 42.667v149.333c0 23.68-18.987 42.667-42.667 42.667zm-42.666 277.333v-85.333h85.333v85.333h-85.333z"/><glyph unicode="" d="M298.667-64h85.333v85.333h-85.333v-85.333zm170.666 0h85.333v85.333h-85.333v-85.333zm85.334 938.667h-85.333v-426.667h85.333v426.667zm152.106-103.894l-61.653-61.653c73.6-45.013 122.88-125.867 122.88-218.453 0-141.44-114.56-256-256-256s-256 114.56-256 256c0 92.587 49.28 173.44 122.88 218.453l-61.653 61.653c-88.533-61.653-146.56-164.053-146.56-280.107 0-188.587 152.747-341.333 341.333-341.333s341.333 152.747 341.333 341.333c0 116.053-58.027 218.453-146.56 280.107zm-66.773-834.773h85.333v85.333h-85.333v-85.333z"/><glyph unicode="" d="M640 576h-256c-23.68 0-42.667-19.2-42.667-42.667v-512c0-23.467 18.987-42.667 42.667-42.667h256c23.68 0 42.667 19.2 42.667 42.667v512c0 23.467-18.987 42.667-42.667 42.667zm-128-256c-47.147 0-85.333 38.187-85.333 85.333s38.187 85.333 85.333 85.333 85.333-38.187 85.333-85.333-38.187-85.333-85.333-85.333zm-211.2 381.867l60.373-60.373c38.613 38.613 91.947 62.507 150.827 62.507s112.213-23.893 150.827-62.507l60.373 60.373c-53.973 53.973-128.64 87.467-211.2 87.467s-157.227-33.493-211.2-87.467zm211.2 258.133c-129.493 0-246.827-52.48-331.947-137.387l60.373-60.373c69.547 69.547 165.547 112.427 271.573 112.427s202.027-42.88 271.573-112.427l60.373 60.373c-85.12 84.907-202.453 137.387-331.947 137.387z"/><glyph unicode="" d="M298.667-64h85.333v85.333h-85.333v-85.333zm213.333 469.333c70.613 0 127.573 57.387 127.573 128l.427 256c0 70.827-57.173 128-128 128-70.613 0-128-57.173-128-128v-256c0-70.613 57.387-128 128-128zm-42.667-469.333h85.333v85.333h-85.333v-85.333zm170.667 0h85.333v85.333h-85.333v-85.333zm170.667 597.333h-72.533c0-128-108.16-217.6-226.133-217.6-117.76 0-226.133 89.6-226.133 217.6h-72.533c0-145.707 116.053-266.027 256-286.72v-139.947h85.333v139.947c139.947 20.693 256 141.013 256 286.72z"/><glyph unicode="" d="M682.667 704v85.333c0 47.147-38.187 85.333-85.333 85.333h-170.667c-47.147 0-85.333-38.187-85.333-85.333v-85.333h-256v-554.667c0-47.147 38.187-85.333 85.333-85.333h682.667c47.147 0 85.333 38.187 85.333 85.333v554.667h-256zm-256 85.333h170.667v-85.333h-170.667v85.333zm-42.667-597.333v384l320-170.667-320-213.333z"/><glyph unicode="" d="M734.293 576l-186.88 279.68c-8.107 12.373-21.76 18.133-35.413 18.133s-27.307-5.973-35.413-18.133l-186.88-279.68h-204.373c-23.467 0-42.667-19.2-42.667-42.667 0-4.053.64-7.893 1.493-11.52l108.16-395.52c10.027-35.84 43.093-62.293 82.347-62.293h554.667c39.253 0 72.32 26.453 82.133 62.507l108.16 395.52c1.067 3.413 1.707 7.253 1.707 11.307 0 23.467-19.2 42.667-42.667 42.667h-204.373zm-350.293 0l128 187.733 128-187.733h-256zm128-341.333c-47.147 0-85.333 38.187-85.333 85.333s38.187 85.333 85.333 85.333 85.333-38.187 85.333-85.333-38.187-85.333-85.333-85.333z"/><glyph unicode="" d="M298.667 192c-47.147 0-84.907-38.187-84.907-85.333s37.76-85.333 84.907-85.333 85.333 38.187 85.333 85.333-38.187 85.333-85.333 85.333zm-256 682.667v-85.333h85.333l153.387-323.627-57.6-104.533c-6.613-12.373-10.453-26.24-10.453-41.173 0-47.147 38.187-85.333 85.333-85.333h512v85.333h-493.867c-5.973 0-10.667 4.693-10.667 10.667 0 1.92.427 3.627 1.28 5.12l38.187 69.547h317.867c32 0 59.947 17.707 74.667 43.947l152.533 276.907c3.413 5.973 5.333 13.013 5.333 20.48 0 23.68-19.2 42.667-42.667 42.667h-630.827l-40.533 85.333h-139.307zm682.666-682.667c-47.147 0-84.907-38.187-84.907-85.333s37.76-85.333 84.907-85.333 85.333 38.187 85.333 85.333-38.187 85.333-85.333 85.333z"/><glyph unicode="" d="M768 746.667v85.333c0 47.147-38.187 85.333-85.333 85.333h-170.667c-47.147 0-85.333-38.187-85.333-85.333v-85.333h-213.333v-469.333c0-47.147 38.187-85.333 85.333-85.333h597.333c47.147 0 85.333 38.187 85.333 85.333v469.333h-213.333zm-256 85.333h170.667v-85.333h-170.667v85.333zm0-512v298.667l234.667-128-234.667-170.667zm-384 256h-85.333v-469.333c0-47.147 38.187-85.333 85.333-85.333h597.333c47.147 0 85.333 38.187 85.333 85.333h-682.667v469.333z"/><glyph unicode="" d="M853.333 874.667h-682.667c-47.147 0-84.907-38.187-84.907-85.333l-.427-768 170.667 170.667h597.333c47.147 0 85.333 38.187 85.333 85.333v512c0 47.147-38.187 85.333-85.333 85.333zm-512-512h-85.333v85.333h85.333v-85.333zm0 128h-85.333v85.333h85.333v-85.333zm0 128h-85.333v85.333h85.333v-85.333zm298.667-256h-213.333v85.333h213.333v-85.333zm128 128h-341.333v85.333h341.333v-85.333zm0 128h-341.333v85.333h341.333v-85.333z"/><glyph unicode="" d="M530.987 277.333h89.173l-217.813 554.667h-79.147l-218.027-554.667h89.173l48 128h240.853l47.787-128zm-256.64 213.334l88.32 235.733 88.32-235.733h-176.64zm646.613-24.96l-344.96-344.96-156.587 156.587-60.373-60.373 216.96-216.96 405.333 405.333-60.373 60.373z"/><glyph unicode="" d="M512 349.867l158.293-115.2-60.587 186.027 158.293 112.64h-194.133l-61.867 192-61.867-192h-194.133l158.293-112.64-60.373-186.027z"/><glyph unicode="" d="M511.787 874.667c-235.733 0-426.453-190.933-426.453-426.667s190.72-426.667 426.453-426.667c235.733 0 426.88 190.933 426.88 426.667s-191.147 426.667-426.88 426.667zm180.693-682.667l-180.48 108.8-180.48-108.8 47.787 205.227-159.147 138.027 209.92 17.92 81.92 193.493 81.92-193.493 209.92-17.92-159.147-138.027 47.787-205.227z"/><glyph unicode="" d="M853.333 789.333h-682.667v-85.333h682.667v85.333zm42.667-426.666v85.333l-42.667 213.333h-682.667l-42.667-213.333v-85.333h42.667v-256h426.667v256h170.667v-256h85.333v256h42.667zm-384-170.667h-256v170.667h256v-170.667z"/><glyph unicode="" d="M597.333 234.667h-426.667v-85.333h426.667v85.333zm256 341.333h-682.667v-85.333h682.667v85.333zm-682.666-256h682.667v85.333h-682.667v-85.333zm0 426.667v-85.333h682.667v85.333h-682.667z"/><glyph unicode="" d="M298.24 490.667l-170.24-170.667 170.24-170.667v128h299.093v85.333h-299.093v128zm597.76 85.333l-170.24 170.667v-128h-299.093v-85.333h299.093v-128l170.24 170.667z"/><glyph unicode="" d="M682.667 234.24v299.093h-85.333v-299.093h-128l170.667-170.24 170.667 170.24h-128zm-298.667 597.76l-170.667-170.24h128v-299.093h85.333v299.093h128l-170.667 170.24z"/><glyph unicode="" d="M512 874.667c-235.733 0-426.667-190.933-426.667-426.667s190.933-426.667 426.667-426.667 426.667 190.933 426.667 426.667-190.933 426.667-426.667 426.667zm-234.667-298.667l149.333 149.333 149.333-149.333h-106.667v-170.667h-85.333v170.667h-106.667zm469.334-256l-149.333-149.333-149.333 149.333h106.667v170.667h85.333v-170.667h106.667z"/><glyph unicode="" d="M512 266.667l170.667 170.667h-128v384h-85.333v-384h-128l170.667-170.667zm384 554.666h-256v-84.693h256v-598.613h-768v598.613h256v84.693h-256c-47.147 0-85.333-38.187-85.333-85.333v-597.333c0-47.147 38.187-85.333 85.333-85.333h768c47.147 0 85.333 38.187 85.333 85.333v597.333c0 47.147-38.187 85.333-85.333 85.333z"/><glyph unicode="" d="M896 832h-768c-47.147 0-85.333-38.187-85.333-85.333v-597.333c0-47.147 38.187-85.333 85.333-85.333h768c47.147 0 85.333 38.187 85.333 85.333v597.333c0 47.147-38.187 85.333-85.333 85.333zm0-682.667h-768v597.333h426.667v-170.667h341.333v-426.667z"/><glyph unicode="" d="M42.667 576h85.333v85.333h-85.333v-85.333zm0-170.667h85.333v85.333h-85.333v-85.333zm0 341.334h85.333v85.333c-47.147 0-85.333-38.187-85.333-85.333zm341.333-682.667h85.333v85.333h-85.333v-85.333zm-341.333 170.667h85.333v85.333h-85.333v-85.333zm85.333-170.667v85.333h-85.333c0-47.147 38.187-85.333 85.333-85.333zm768 768h-341.333v-256h426.667v170.667c0 47.147-38.187 85.333-85.333 85.333zm0-597.333h85.333v85.333h-85.333v-85.333zm-512 512h85.333v85.333h-85.333v-85.333zm-170.667-682.667h85.333v85.333h-85.333v-85.333zm0 682.667h85.333v85.333h-85.333v-85.333zm682.667-682.667c47.147 0 85.333 38.187 85.333 85.333h-85.333v-85.333zm0 341.333h85.333v85.333h-85.333v-85.333zm-341.333-341.333h85.333v85.333h-85.333v-85.333zm170.666 0h85.333v85.333h-85.333v-85.333z"/><glyph unicode="" d="M768 832v-85.333h-85.333v85.333h-341.333v-85.333h-85.333v85.333h-85.333v-768h85.333v85.333h85.333v-85.333h341.333v85.333h85.333v-85.333h85.333v768h-85.333zm-426.667-597.333h-85.333v85.333h85.333v-85.333zm0 170.666h-85.333v85.333h85.333v-85.333zm0 170.667h-85.333v85.333h85.333v-85.333zm426.667-341.333h-85.333v85.333h85.333v-85.333zm0 170.666h-85.333v85.333h85.333v-85.333zm0 170.667h-85.333v85.333h85.333v-85.333z"/><glyph unicode="" d="M640 832h-384c-35.413 0-65.707-21.547-78.507-52.053l-128.64-300.8c-3.84-9.813-6.187-20.267-6.187-31.147v-81.707l.427-.427-.427-3.2c0-47.147 38.187-85.333 85.333-85.333h269.44l-40.747-194.987c-.853-4.267-1.493-8.747-1.493-13.44 0-17.707 7.253-33.707 18.773-45.227l45.44-45.013 280.96 280.96c15.36 15.573 24.96 36.907 24.96 60.373v426.667c0 47.147-38.187 85.333-85.333 85.333zm170.667 0v-512h170.667v512h-170.667z"/><glyph unicode="" d="M512 704c0 23.467-19.2 42.667-42.667 42.667h-221.227l28.373 135.467c.64 3.2 1.067 6.613 1.067 10.027 0 13.227-5.333 25.173-14.08 33.92l-33.92 33.92-210.773-210.773c-11.52-11.52-18.773-27.52-18.773-45.227v-277.333c0-35.413 28.587-64 64-64h288c26.453 0 49.28 16 58.88 39.04l96.64 225.707c2.773 7.253 4.48 14.933 4.48 23.253v53.333zm448-170.667h-288c-26.453 0-49.28-16-58.88-39.04l-96.64-225.707c-2.773-7.253-4.48-14.933-4.48-23.253v-53.333c0-23.467 19.2-42.667 42.667-42.667h221.227l-28.373-135.467c-.64-3.2-1.067-6.613-1.067-10.027 0-13.227 5.333-25.173 14.08-33.92l33.92-33.92 210.773 210.773c11.52 11.52 18.773 27.52 18.773 45.227v277.333c0 35.413-28.587 64-64 64z"/><glyph unicode="" d="M42.667 64h170.667v512h-170.667v-512zm938.666 469.333c0 47.147-38.187 85.333-85.333 85.333h-269.44l40.747 194.987c.853 4.267 1.493 8.747 1.493 13.44 0 17.707-7.253 33.707-18.773 45.227l-45.44 45.013-280.96-280.96c-15.36-15.573-24.96-36.907-24.96-60.373v-426.667c0-47.147 38.187-85.333 85.333-85.333h384c35.413 0 65.707 21.547 78.507 52.053l128.64 300.8c3.84 9.813 6.187 20.267 6.187 31.147v81.707l-.427.427.427 3.2z"/><glyph unicode="" d="M128 576h597.333v85.333h-597.333v-85.333zm0-170.667h597.333v85.333h-597.333v-85.333zm0-170.666h597.333v85.333h-597.333v-85.333zm682.667 0h85.333v85.333h-85.333v-85.333zm0 426.666v-85.333h85.333v85.333h-85.333zm0-256h85.333v85.333h-85.333v-85.333z"/><glyph unicode="" d="M810.667 832h-42.667v85.333h-85.333v-85.333h-341.333v85.333h-85.333v-85.333h-42.667c-47.147 0-84.907-38.187-84.907-85.333l-.427-597.333c0-47.147 38.187-85.333 85.333-85.333h597.333c47.147 0 85.333 38.187 85.333 85.333v597.333c0 47.147-38.187 85.333-85.333 85.333zm0-682.667h-597.333v469.333h597.333v-469.333zm-512 384h213.333v-213.333h-213.333z"/><glyph unicode="" d="M813.653 749.653l-60.373-60.373c61.867-61.653 100.053-146.987 100.053-241.28 0-188.587-152.747-341.333-341.333-341.333s-341.333 152.747-341.333 341.333c0 174.08 130.347 317.44 298.667 338.347v-86.187c-120.96-20.267-213.333-125.44-213.333-252.16 0-141.44 114.56-256 256-256s256 114.56 256 256c0 70.613-28.587 134.613-74.88 181.12l-60.373-60.373c30.72-30.933 49.92-73.6 49.92-120.747 0-94.293-76.373-170.667-170.667-170.667s-170.667 76.373-170.667 170.667c0 79.36 54.613 145.707 128 164.693v-91.093c-25.387-14.72-42.667-42.027-42.667-73.6 0-47.147 38.187-85.333 85.333-85.333s85.333 38.187 85.333 85.333c0 31.573-17.28 58.667-42.667 73.6v353.067h-42.667c-235.733 0-426.667-190.933-426.667-426.667 0-235.52 190.933-426.667 426.667-426.667 235.52 0 426.667 191.147 426.667 426.667 0 117.76-47.787 224.427-125.013 301.653z"/><glyph unicode="" d="M549.12 316.8l-108.373 107.093 1.28 1.28c74.24 82.773 127.147 177.92 158.293 278.613h125.013v85.547h-298.667v85.333h-85.333v-85.333h-298.667v-84.907h476.587c-28.8-82.347-73.813-160.427-135.253-228.693-39.68 44.16-72.533 92.16-98.56 142.933h-85.333c31.147-69.547 73.813-135.253 127.147-194.56l-216.96-214.4 60.373-60.373 213.333 213.333 132.693-132.693 32.427 86.827zm240.213 216.533h-85.333l-192-512h85.333l48 128h202.667l48-128h85.333l-192 512zm-112-298.666l69.333 184.96 69.333-184.96h-138.667z"/><glyph unicode="" d="M682.667 192l97.92 97.92-208.213 208-170.667-170.667-316.373 316.373 60.373 60.373 256-256 170.667 170.667 268.373-268.587 97.92 97.92v-256z"/><glyph unicode="" d="M938.667 448l-170.667 170.667v-128h-640v-85.333h640v-128z"/><glyph unicode="" d="M682.667 704l97.92-97.92-208.213-208-170.667 170.667-316.373-316.373 60.373-60.373 256 256 170.667-170.667 268.373 268.587 97.92-97.92v256z"/><glyph unicode="" d="M725.333 832h-426.667c-47.147 0-84.907-38.187-84.907-85.333l-.427-682.667 298.667 128 298.667-128v682.667c0 47.147-38.187 85.333-85.333 85.333z"/><glyph unicode="" d="M725.333 832h-426.667c-47.147 0-84.907-38.187-84.907-85.333l-.427-682.667 298.667 128 298.667-128v682.667c0 47.147-38.187 85.333-85.333 85.333zm0-640l-213.333 92.8-213.333-92.8v554.667h426.667v-554.667z"/><glyph unicode="" d="M512 917.333l-384-170.667v-256c0-237.013 163.627-458.027 384-512 220.373 53.973 384 274.987 384 512v256l-384 170.667zm-85.333-682.666l-170.667 170.667 60.373 60.373 110.293-110.293 280.96 280.96 60.373-60.373-341.333-341.333z"/><glyph unicode="" d="M853.333 405.333h-725.333c-23.467 0-42.667-19.2-42.667-42.667v-256c0-23.467 19.2-42.667 42.667-42.667h725.333c23.467 0 42.667 19.2 42.667 42.667v256c0 23.467-19.2 42.667-42.667 42.667zm0 426.667h-725.333c-23.467 0-42.667-19.2-42.667-42.667v-256c0-23.467 19.2-42.667 42.667-42.667h725.333c23.467 0 42.667 19.2 42.667 42.667v256c0 23.467-19.2 42.667-42.667 42.667z"/><glyph unicode="" d="M170.667 192h128v554.667h-128v-554.667zm597.333 554.667v-554.667h128v554.667h-128zm-426.667-554.667h384v554.667h-384v-554.667z"/><glyph unicode="" d="M298.667 149.333h426.667v640h-426.667v-640zm-213.334 85.334h170.667v469.333h-170.667v-469.333zm682.667 469.333v-469.333h170.667v469.333h-170.667z"/><glyph unicode="" d="M426.667 192h213.333v554.667h-213.333v-554.667zm-256 0h213.333v554.667h-213.333v-554.667zm512 554.667v-554.667h213.333v554.667h-213.333z"/><glyph unicode="" d="M85.333 64h810.667v128h-810.667v-128zm768 554.667h-725.333c-23.467 0-42.667-19.2-42.667-42.667v-256c0-23.467 19.2-42.667 42.667-42.667h725.333c23.467 0 42.667 19.2 42.667 42.667v256c0 23.467-19.2 42.667-42.667 42.667zm-768 213.333v-128h810.667v128h-810.667z"/><glyph unicode="" d="M170.667 320h725.333v85.333h-725.333v-85.333zm0-170.667h725.333v85.333h-725.333v-85.333zm0 341.334h725.333v85.333h-725.333v-85.333zm0 256v-85.333h725.333v85.333h-725.333z"/><glyph unicode="" d="M170.667 362.667h170.667v170.667h-170.667v-170.667zm0-213.334h170.667v170.667h-170.667v-170.667zm0 426.667h170.667v170.667h-170.667v-170.667zm213.333-213.333h512v170.667h-512v-170.667zm0-213.334h512v170.667h-512v-170.667zm0 597.334v-170.667h512v170.667h-512z"/><glyph unicode="" d="M170.667 490.667h213.333v256h-213.333v-256zm0-298.667h213.333v256h-213.333v-256zm256 0h213.333v256h-213.333v-256zm256 0h213.333v256h-213.333v-256zm-256 298.667h213.333v256h-213.333v-256zm256 256v-256h213.333v256h-213.333z"/><glyph unicode="" d="M426.667 192h213.333v256h-213.333v-256zm-256 0h213.333v554.667h-213.333v-554.667zm512 0h213.333v256h-213.333v-256zm-256 554.667v-256h469.333v256h-469.333z"/><glyph unicode="" d="M170.667 192h725.333v256h-725.333v-256zm0 554.667v-256h725.333v256h-725.333z"/><glyph unicode="" d="M256 746.667h-128c-23.467 0-42.667-19.2-42.667-42.667v-512c0-23.467 19.2-42.667 42.667-42.667h128c23.467 0 42.667 19.2 42.667 42.667v512c0 23.467-19.2 42.667-42.667 42.667zm597.333 0h-128c-23.467 0-42.667-19.2-42.667-42.667v-512c0-23.467 19.2-42.667 42.667-42.667h128c23.467 0 42.667 19.2 42.667 42.667v512c0 23.467-19.2 42.667-42.667 42.667zm-298.666 0h-128c-23.467 0-42.667-19.2-42.667-42.667v-512c0-23.467 19.2-42.667 42.667-42.667h128c23.467 0 42.667 19.2 42.667 42.667v512c0 23.467-19.2 42.667-42.667 42.667z"/><glyph unicode="" d="M512 768c-213.333 0-395.52-132.693-469.333-320 73.813-187.307 256-320 469.333-320 213.547 0 395.52 132.693 469.333 320-73.813 187.307-255.787 320-469.333 320zm0-533.333c-117.76 0-213.333 95.573-213.333 213.333s95.573 213.333 213.333 213.333 213.333-95.573 213.333-213.333-95.573-213.333-213.333-213.333zm0 341.333c-70.613 0-128-57.387-128-128s57.387-128 128-128 128 57.387 128 128-57.387 128-128 128z"/><glyph unicode="" d="M512 661.333c117.76 0 213.333-95.573 213.333-213.333 0-27.52-5.547-53.76-15.147-77.867l124.8-124.8c64.427 53.76 115.2 123.307 146.56 202.667-74.027 187.307-256 320-469.547 320-59.733 0-116.907-10.667-170.027-29.867l92.16-91.947c24.107 9.387 50.347 15.147 77.867 15.147zm-426.667 116.267l116.693-116.693c-70.4-55.04-126.08-128.213-159.36-212.907 73.813-187.307 256-320 469.333-320 66.133 0 129.28 12.8 187.093 36.053l18.133-18.133 124.373-124.587 54.4 54.187-756.267 756.48-54.4-54.4zm235.947-235.733l65.92-65.92c-1.92-9.173-3.2-18.347-3.2-27.947 0-70.613 57.387-128 128-128 9.6 0 18.773 1.28 27.733 3.2l65.92-65.92c-28.373-14.08-59.947-22.613-93.653-22.613-117.76 0-213.333 95.573-213.333 213.333 0 33.707 8.533 65.28 22.613 93.867zm183.68 33.493l134.4-134.4.64 7.04c0 70.613-57.387 128-128 128l-7.04-.64z"/><glyph unicode="" d="M853.333 704h-93.227c4.693 13.44 7.893 27.733 7.893 42.667 0 70.613-57.387 128-128 128-44.587 0-83.84-22.827-106.667-57.387l-21.333-29.013-21.333 29.013c-22.827 34.56-62.08 57.387-106.667 57.387-70.613 0-128-57.387-128-128 0-14.933 2.987-29.227 7.893-42.667h-93.227c-47.147 0-84.907-38.187-84.907-85.333l-.427-469.333c0-47.147 38.187-85.333 85.333-85.333h682.667c47.147 0 85.333 38.187 85.333 85.333v469.333c0 47.147-38.187 85.333-85.333 85.333zm-213.333 85.333c23.467 0 42.667-19.2 42.667-42.667s-19.2-42.667-42.667-42.667-42.667 19.2-42.667 42.667 19.2 42.667 42.667 42.667zm-256 0c23.467 0 42.667-19.2 42.667-42.667s-19.2-42.667-42.667-42.667-42.667 19.2-42.667 42.667 19.2 42.667 42.667 42.667zm469.333-640h-682.667v85.333h682.667v-85.333zm0 213.334h-682.667v256h216.747l-88.747-120.96 69.333-49.707 144 196.053 42.667-58.027 101.333-138.027 69.333 49.707-88.747 120.96h216.747v-256z"/><glyph unicode="" d="M853.333 874.667h-682.667c-47.147 0-85.333-38.187-85.333-85.333v-469.333c0-47.147 38.187-85.333 85.333-85.333h170.667v-213.333l170.667 85.333 170.667-85.333v213.333h170.667c47.147 0 85.333 38.187 85.333 85.333v469.333c0 47.147-38.187 85.333-85.333 85.333zm0-554.667h-682.667v85.333h682.667v-85.333zm0 213.333h-682.667v256h682.667v-256z"/><glyph unicode="" d="M853.333 704h-128v85.333c0 47.147-38.187 85.333-85.333 85.333h-256c-47.147 0-85.333-38.187-85.333-85.333v-85.333h-128c-47.147 0-85.333-38.187-85.333-85.333v-469.333c0-47.147 38.187-85.333 85.333-85.333h682.667c47.147 0 85.333 38.187 85.333 85.333v469.333c0 47.147-38.187 85.333-85.333 85.333zm-469.333 85.333h256v-85.333h-256v85.333zm469.333-640h-682.667v85.333h682.667v-85.333zm0 213.334h-682.667v256h128v-85.333h85.333v85.333h256v-85.333h85.333v85.333h128v-256z"/><glyph unicode="" d="M1024 960v-1024h-1024v1024h1024zm21.333 21.333h-1066.667v-1066.667h1066.667v1066.667zm-192-277.333h-170.667v85.333c0 47.147-38.187 85.333-85.333 85.333h-170.667c-47.147 0-85.333-38.187-85.333-85.333v-85.333h-170.667c-47.147 0-84.907-38.187-84.907-85.333l-.427-469.333c0-47.147 38.187-85.333 85.333-85.333h682.667c47.147 0 85.333 38.187 85.333 85.333v469.333c0 47.147-38.187 85.333-85.333 85.333zm-256 0h-170.667v85.333h170.667v-85.333z"/><glyph unicode="" d="M512 874.667c-235.52 0-426.667-190.933-426.667-426.667s191.147-426.667 426.667-426.667 426.667 190.933 426.667 426.667-191.147 426.667-426.667 426.667zm42.667-640h-85.333v85.333h85.333v-85.333zm0 170.666h-85.333v256h85.333v-256z"/><glyph unicode="" d="M42.667 64h938.667l-469.333 810.667-469.333-810.667zm512 128h-85.333v85.333h85.333v-85.333zm0 170.667h-85.333v170.667h85.333v-170.667z"/><glyph unicode="" d="M512 874.667c-235.733 0-426.667-190.933-426.667-426.667s190.933-426.667 426.667-426.667 426.667 190.933 426.667 426.667-190.933 426.667-426.667 426.667zm0-618.667c-106.027 0-192 85.973-192 192s85.973 192 192 192 192-85.973 192-192-85.973-192-192-192zm0 234.667c-23.467 0-42.667-19.2-42.667-42.667s19.2-42.667 42.667-42.667 42.667 19.2 42.667 42.667-19.2 42.667-42.667 42.667z"/><glyph unicode="" d="M469.333 234.667c0-23.467 19.2-42.667 42.667-42.667s42.667 19.2 42.667 42.667-19.2 42.667-42.667 42.667-42.667-19.2-42.667-42.667zm0 597.333v-170.667h85.333v81.92c144.64-20.693 256-144.853 256-295.253 0-164.907-133.76-298.667-298.667-298.667s-298.667 133.76-298.667 298.667c0 71.68 25.173 137.173 67.2 188.8l231.467-231.467 60.373 60.373-290.133 290.133-.427-.853c-93.227-69.973-153.813-181.333-153.813-306.987 0-212.053 171.52-384 383.787-384s384.213 171.947 384.213 384-171.947 384-384.213 384h-42.453zm298.667-384c0 23.467-19.2 42.667-42.667 42.667s-42.667-19.2-42.667-42.667 19.2-42.667 42.667-42.667 42.667 19.2 42.667 42.667zm-512 0c0-23.467 19.2-42.667 42.667-42.667s42.667 19.2 42.667 42.667-19.2 42.667-42.667 42.667-42.667-19.2-42.667-42.667z"/><glyph unicode="" d="M810.667 789.333h-597.333c-47.147 0-85.333-38.187-85.333-85.333v-512c0-47.147 38.187-85.333 85.333-85.333h597.333c47.147 0 85.333 38.187 85.333 85.333v512c0 47.147-38.187 85.333-85.333 85.333zm-341.334-298.666h-64v21.333h-85.333v-128h85.333v21.333h64v-42.667c0-23.467-18.987-42.667-42.667-42.667h-128c-23.68 0-42.667 19.2-42.667 42.667v170.667c0 23.467 18.987 42.667 42.667 42.667h128c23.68 0 42.667-19.2 42.667-42.667v-42.667zm298.667 0h-64v21.333h-85.333v-128h85.333v21.333h64v-42.667c0-23.467-18.987-42.667-42.667-42.667h-128c-23.68 0-42.667 19.2-42.667 42.667v170.667c0 23.467 18.987 42.667 42.667 42.667h128c23.68 0 42.667-19.2 42.667-42.667v-42.667z"/><glyph unicode="" d="M426.667 106.667h170.667v682.667h-170.667v-682.667zm-256 0h170.667v341.333h-170.667v-341.333zm512 469.333v-469.333h170.667v469.333h-170.667z"/><glyph unicode="" d="M810.667 832h-597.333c-47.147 0-85.333-38.187-85.333-85.333v-597.333c0-47.147 38.187-85.333 85.333-85.333h597.333c47.147 0 85.333 38.187 85.333 85.333v597.333c0 47.147-38.187 85.333-85.333 85.333zm-170.667-256h-170.667v-85.333h170.667v-85.333h-170.667v-85.333h170.667v-85.333h-256v426.667h256v-85.333z"/><glyph unicode="" d="M170.667 192l362.667 256-362.667 256v-512zm384 512v-512l362.667 256-362.667 256z"/><glyph unicode="" d="M469.333 192v512l-362.667-256 362.667-256zm21.334 256l362.667-256v512l-362.667-256z"/><glyph unicode="" d="M640 640v234.667h-256v-234.667l128-128 128 128zm-320-64h-234.667v-256h234.667l128 128-128 128zm64-320v-234.667h256v234.667l-128 128-128-128zm320 320l-128-128 128-128h234.667v256h-234.667z"/><glyph unicode="" d="M725.333 106.667c-12.16 0-24.107 2.56-32.64 6.4-30.08 16-51.84 37.76-72.96 101.76-21.973 66.347-62.72 97.707-102.187 128.213-33.707 26.027-68.693 52.907-98.773 107.733-22.4 40.96-34.773 85.547-34.773 125.227 0 119.68 93.653 213.333 213.333 213.333s213.333-93.653 213.333-213.333h85.333c0 167.467-131.2 298.667-298.667 298.667s-298.667-131.2-298.667-298.667c0-53.973 16.213-113.067 45.44-166.4 38.827-70.613 84.693-105.813 121.6-134.4 34.56-26.667 59.52-45.867 73.173-87.253 25.6-77.44 58.667-121.173 116.267-151.467 22.187-10.027 45.653-15.147 70.187-15.147 94.08 0 170.667 76.587 170.667 170.667h-85.333c0-47.147-38.187-85.333-85.333-85.333zm-399.573 740.906l-60.373 60.373c-84.907-84.907-137.387-202.24-137.387-331.947s52.48-247.04 137.387-331.947l60.373 60.373c-69.547 69.547-112.427 165.547-112.427 271.573s42.88 202.027 112.427 271.573zm164.907-271.573c0-58.88 47.787-106.667 106.667-106.667s106.667 47.787 106.667 106.667-47.787 106.667-106.667 106.667-106.667-47.787-106.667-106.667z"/><glyph unicode="" d="M810.667 789.333h-597.333c-47.147 0-85.333-38.187-85.333-85.333v-512c0-47.147 38.187-85.333 85.333-85.333h597.333c47.147 0 85.333 38.187 85.333 85.333v512c0 47.147-38.187 85.333-85.333 85.333zm-341.334-469.333h-64v85.333h-85.333v-85.333h-64v256h64v-106.667h85.333v106.667h64v-256zm298.667 42.667c0-23.467-18.987-42.667-42.667-42.667h-32v-64h-64v64h-32c-23.68 0-42.667 19.2-42.667 42.667v170.667c0 23.467 18.987 42.667 42.667 42.667h128c23.68 0 42.667-19.2 42.667-42.667v-170.667zm-149.333 21.333h85.333v128h-85.333v-128z"/><glyph unicode="" d="M512 789.333v128l-170.667-170.667 170.667-170.667v128c141.44 0 256-114.56 256-256 0-43.307-10.88-83.84-29.653-119.68l62.293-62.293c33.067 52.907 52.693 114.987 52.693 181.973 0 188.587-152.747 341.333-341.333 341.333zm0-597.333c-141.44 0-256 114.56-256 256 0 43.307 10.88 83.84 29.653 119.68l-62.293 62.293c-33.067-52.907-52.693-114.987-52.693-181.973 0-188.587 152.747-341.333 341.333-341.333v-128l170.667 170.667-170.667 170.667v-128z"/><glyph unicode="" d="M512 362.667c70.613 0 127.573 57.387 127.573 128l.427 256c0 70.827-57.173 128-128 128-70.613 0-128-57.173-128-128v-256c0-70.613 57.387-128 128-128zm226.133 128c0-128-108.16-217.6-226.133-217.6-117.76 0-226.133 89.6-226.133 217.6h-72.533c0-145.707 116.053-266.027 256-286.72v-139.947h85.333v139.947c139.947 20.693 256 141.013 256 286.72h-72.533z"/><glyph unicode="" d="M512 362.667c70.613 0 127.573 57.387 127.573 128l.427 256c0 70.827-57.173 128-128 128-70.613 0-128-57.173-128-128v-256c0-70.613 57.387-128 128-128zm-51.2 388.266c0 28.16 23.04 51.2 51.2 51.2s51.2-23.04 51.2-51.2l-.427-264.533c0-28.16-22.827-51.2-50.773-51.2-28.16 0-51.2 23.04-51.2 51.2v264.533zm277.333-260.266c0-128-108.16-217.6-226.133-217.6-117.76 0-226.133 89.6-226.133 217.6h-72.533c0-145.707 116.053-266.027 256-286.72v-139.947h85.333v139.947c139.947 20.693 256 141.013 256 286.72h-72.533z"/><glyph unicode="" d="M810.667 490.667h-72.533c0-31.787-6.613-61.227-18.56-87.467l52.48-52.48c24.32 41.6 38.613 89.173 38.613 139.947zm-171.307-7.04l.64 7.04v256c0 70.827-57.387 128-128 128s-128-57.173-128-128v-7.893l255.36-255.147zm-456.96 348.373l-54.4-54.4 256.427-256.427v-30.72c0-70.613 56.96-128 127.573-128 9.6 0 18.773 1.28 27.733 3.2l70.827-70.827c-30.507-14.08-64-21.973-98.56-21.973-117.76 0-226.133 89.6-226.133 217.6h-72.533c0-145.707 116.053-266.027 256-286.72v-139.733h85.333v139.947c38.613 5.76 75.307 19.2 108.373 38.613l178.56-178.56 54.4 54.187-713.6 713.813z"/><glyph unicode="" d="M768 789.333l85.333-170.667h-128l-85.333 170.667h-85.333l85.333-170.667h-128l-85.333 170.667h-85.333l85.333-170.667h-128l-85.333 170.667h-42.667c-47.147 0-84.907-38.187-84.907-85.333l-.427-512c0-47.147 38.187-85.333 85.333-85.333h682.667c47.147 0 85.333 38.187 85.333 85.333v597.333h-170.667z"/><glyph unicode="" d="M170.667 704h-85.333v-597.333c0-47.147 38.187-85.333 85.333-85.333h597.333v85.333h-597.333v597.333zm682.666 170.667h-512c-47.147 0-85.333-38.187-85.333-85.333v-512c0-47.147 38.187-85.333 85.333-85.333h512c47.147 0 85.333 38.187 85.333 85.333v512c0 47.147-38.187 85.333-85.333 85.333zm-42.666-384h-170.667v-170.667h-85.333v170.667h-170.667v85.333h170.667v170.667h85.333v-170.667h170.667v-85.333z"/><glyph unicode="" d="M170.667 704h-85.333v-597.333c0-47.147 38.187-85.333 85.333-85.333h597.333v85.333h-597.333v597.333zm682.666 170.667h-512c-47.147 0-85.333-38.187-85.333-85.333v-512c0-47.147 38.187-85.333 85.333-85.333h512c47.147 0 85.333 38.187 85.333 85.333v512c0 47.147-38.187 85.333-85.333 85.333zm-42.666-384h-426.667v85.333h426.667v-85.333zm-170.667-170.667h-256v85.333h256v-85.333zm170.667 341.333h-426.667v85.333h426.667v-85.333z"/><glyph unicode="" d="M853.333 874.667h-512c-47.147 0-85.333-38.187-85.333-85.333v-512c0-47.147 38.187-85.333 85.333-85.333h512c47.147 0 85.333 38.187 85.333 85.333v512c0 47.147-38.187 85.333-85.333 85.333zm-85.333-213.334h-128v-234.667c0-58.88-47.787-106.667-106.667-106.667s-106.667 47.787-106.667 106.667 47.787 106.667 106.667 106.667c24.107 0 46.08-8.32 64-21.76v235.093h170.667v-85.333zm-597.333 42.667h-85.333v-597.333c0-47.147 38.187-85.333 85.333-85.333h597.333v85.333h-597.333v597.333z"/><glyph unicode="" d="M981.333 448l-104.107 118.613 14.507 157.227-154.027 34.773-80.64 135.68-145.067-62.293-145.067 62.293-80.64-135.68-154.027-34.773 14.507-157.227-104.107-118.613 104.107-118.613-14.507-157.227 154.027-34.773 80.64-135.68 145.067 62.293 145.067-62.293 80.64 135.68 154.027 34.773-14.507 157.227 104.107 118.613zm-426.666-213.333h-85.333v85.333h85.333v-85.333zm0 170.666h-85.333v256h85.333v-256z"/><glyph unicode="" d="M512 874.667c-235.733 0-426.667-190.933-426.667-426.667s190.933-426.667 426.667-426.667 426.667 190.933 426.667 426.667-190.933 426.667-426.667 426.667zm0-768c-188.587 0-341.333 152.747-341.333 341.333 0 78.933 27.093 151.253 71.893 209.067l478.507-478.507c-57.813-44.8-130.133-71.893-209.067-71.893zm269.44 132.266l-478.507 478.507c57.813 44.8 130.133 71.893 209.067 71.893 188.587 0 341.333-152.747 341.333-341.333 0-78.933-27.093-151.253-71.893-209.067z"/><glyph unicode="" d="M256 149.333h170.667v597.333h-170.667v-597.333zm341.333 597.334v-597.333h170.667v597.333h-170.667z"/><glyph unicode="" d="M512 874.667c-235.733 0-426.667-190.933-426.667-426.667s190.933-426.667 426.667-426.667 426.667 190.933 426.667 426.667-190.933 426.667-426.667 426.667zm-42.667-597.334h-85.333v341.333h85.333v-341.333zm170.667 0h-85.333v341.333h85.333v-341.333z"/><glyph unicode="" d="M384 277.333h85.333v341.333h-85.333v-341.333zm128 597.334c-235.733 0-426.667-190.933-426.667-426.667s190.933-426.667 426.667-426.667 426.667 190.933 426.667 426.667-190.933 426.667-426.667 426.667zm0-768c-188.16 0-341.333 153.173-341.333 341.333s153.173 341.333 341.333 341.333 341.333-153.173 341.333-341.333-153.173-341.333-341.333-341.333zm42.667 170.666h85.333v341.333h-85.333v-341.333z"/><glyph unicode="" d="M341.333 746.667v-597.333l469.333 298.667z"/><glyph unicode="" d="M512 874.667c-235.733 0-426.667-190.933-426.667-426.667s190.933-426.667 426.667-426.667 426.667 190.933 426.667 426.667-190.933 426.667-426.667 426.667zm-85.333-618.667v384l256-192-256-192z"/><glyph unicode="" d="M426.667 256l256 192-256 192v-384zm85.333 618.667c-235.733 0-426.667-190.933-426.667-426.667s190.933-426.667 426.667-426.667 426.667 190.933 426.667 426.667-190.933 426.667-426.667 426.667zm0-768c-188.16 0-341.333 153.173-341.333 341.333s153.173 341.333 341.333 341.333 341.333-153.173 341.333-341.333-153.173-341.333-341.333-341.333z"/><glyph unicode="" d="M597.333 533.333h-512v-85.333h512v85.333zm0 170.667h-512v-85.333h512v85.333zm170.667-341.333v170.667h-85.333v-170.667h-170.667v-85.333h170.667v-170.667h85.333v170.667h170.667v85.333h-170.667zm-682.667-85.334h341.333v85.333h-341.333v-85.333z"/><glyph unicode="" d="M682.667 704v85.333c0 47.147-38.187 85.333-85.333 85.333h-170.667c-47.147 0-85.333-38.187-85.333-85.333v-85.333h-256v-554.667c0-47.147 38.187-85.333 85.333-85.333h682.667c47.147 0 85.333 38.187 85.333 85.333v554.667h-256zm-256 85.333h170.667v-85.333h-170.667v85.333zm-42.667-597.333v384l320-170.667-320-213.333z"/><glyph unicode="" d="M170.667 704h-85.333v-597.333c0-47.147 38.187-85.333 85.333-85.333h597.333v85.333h-597.333v597.333zm682.666 170.667h-512c-47.147 0-85.333-38.187-85.333-85.333v-512c0-47.147 38.187-85.333 85.333-85.333h512c47.147 0 85.333 38.187 85.333 85.333v512c0 47.147-38.187 85.333-85.333 85.333zm-42.666-384h-170.667v-170.667h-85.333v170.667h-170.667v85.333h170.667v170.667h85.333v-170.667h170.667v-85.333z"/><glyph unicode="" d="M640 704h-512v-85.333h512v85.333zm0-170.667h-512v-85.333h512v85.333zm-512-256h341.333v85.333h-341.333v-85.333zm597.333 426.667v-349.227c-13.44 4.907-27.52 7.893-42.667 7.893-70.613 0-128-57.387-128-128s57.387-128 128-128 128 57.387 128 128v384h128v85.333h-213.333z"/><glyph unicode="" d="M138.027 697.6c-30.933-12.16-52.693-43.307-52.693-78.933v-512c0-47.147 38.187-85.333 85.333-85.333h682.667c47.147 0 85.333 38.187 85.333 85.333v512c0 47.147-38.187 85.333-85.333 85.333h-498.987l352.64 142.293-29.44 71.04-539.52-219.733zm160.64-590.933c-70.613 0-128 57.387-128 128s57.387 128 128 128 128-57.387 128-128-57.387-128-128-128zm554.666 341.333h-85.333v85.333h-85.333v-85.333h-512v170.667h682.667v-170.667z"/><glyph unicode="" d="M896 746.667v-597.333h85.333v597.333h-85.333zm-170.667-597.334h85.333v597.333h-85.333v-597.333zm-128 597.334h-512c-23.467 0-42.667-19.2-42.667-42.667v-512c0-23.467 19.2-42.667 42.667-42.667h512c23.467 0 42.667 19.2 42.667 42.667v512c0 23.467-19.2 42.667-42.667 42.667zm-256-117.334c52.907 0 96-43.093 96-96 0-53.12-43.093-96-96-96s-96 42.88-96 96c0 52.907 43.093 96 96 96zm192-394.666h-384v32c0 64 128 96 192 96s192-32 192-96v-32z"/><glyph unicode="" d="M298.667 661.333h426.667v-128l170.667 170.667-170.667 170.667v-128h-512v-256h85.333v170.667zm426.666-426.666h-426.667v128l-170.667-170.667 170.667-170.667v128h512v256h-85.333v-170.667z"/><glyph unicode="" d="M298.667 661.333h426.667v-128l170.667 170.667-170.667 170.667v-128h-512v-256h85.333v170.667zm426.666-426.666h-426.667v128l-170.667-170.667 170.667-170.667v128h512v256h-85.333v-170.667zm-170.666 85.333v256h-42.667l-85.333-42.667v-42.667h64v-170.667h64z"/><glyph unicode="" d="M512 746.667v170.667l-213.333-213.333 213.333-213.333v170.667c141.44 0 256-114.56 256-256s-114.56-256-256-256-256 114.56-256 256h-85.333c0-188.587 152.747-341.333 341.333-341.333s341.333 152.747 341.333 341.333-152.747 341.333-341.333 341.333z"/><glyph unicode="" d="M451.627 568.747l-220.587 220.587-60.373-60.373 220.587-220.587 60.373 60.373zm167.04 220.586l87.253-87.253-535.253-535.04 60.373-60.373 535.253 535.253 87.04-87.253v234.667h-234.667zm14.08-401.706l-60.373-60.373 133.547-133.547-87.253-87.04h234.667v234.667l-87.253-87.253-133.333 133.547z"/><glyph unicode="" d="M256 192l362.667 256-362.667 256v-512zm426.667 512v-512h85.333v512h-85.333z"/><glyph unicode="" d="M256 704h85.333v-512h-85.333zm149.333-256l362.667-256v512z"/><glyph unicode="" d="M336.213 815.36l-54.827 65.28-196.053-164.48 54.827-65.28 196.053 164.48zm602.454-99.413l-196.053 164.48-54.827-65.28 196.053-164.48 54.827 65.28zm-426.88 73.386c-212.267 0-383.787-171.947-383.787-384s171.52-384 383.787-384 384.213 171.947 384.213 384-171.947 384-384.213 384zm.213-682.666c-164.907 0-298.667 133.76-298.667 298.667s133.76 298.667 298.667 298.667 298.667-133.76 298.667-298.667-133.547-298.667-298.667-298.667zm-128 384h154.667l-154.667-179.2v-76.8h256v85.333h-154.667l154.667 179.2v76.8h-256v-85.333z"/><glyph unicode="" d="M256 704h512v-512h-512z"/><glyph unicode="" d="M853.333 789.333h-682.667c-47.147 0-85.333-38.187-85.333-85.333v-512c0-47.147 38.187-85.333 85.333-85.333h682.667c47.147 0 85.333 38.187 85.333 85.333v512c0 47.147-38.187 85.333-85.333 85.333zm-682.666-341.333h170.667v-85.333h-170.667v85.333zm426.666-256h-426.667v85.333h426.667v-85.333zm256 0h-170.667v85.333h170.667v-85.333zm0 170.667h-426.667v85.333h426.667v-85.333z"/><glyph unicode="" d="M853.333 789.333h-682.667c-47.147 0-85.333-38.187-85.333-85.333v-512c0-47.147 38.187-85.333 85.333-85.333h682.667c47.147 0 85.333 38.187 85.333 85.333v512c0 47.147-38.187 85.333-85.333 85.333zm-522.453-522.453l-60.373-60.373c-66.347 66.773-99.84 154.027-99.84 241.493s33.493 174.72 100.053 241.28l60.373-60.373c-49.92-49.707-75.093-115.413-75.093-180.907s24.96-131.2 74.88-181.12zm181.12 10.453c-94.293 0-170.667 76.373-170.667 170.667s76.373 170.667 170.667 170.667 170.667-76.373 170.667-170.667-76.373-170.667-170.667-170.667zm241.28-70.613l-60.373 60.373c50.133 49.707 75.093 115.413 75.093 180.907s-25.173 131.2-74.88 181.12l60.373 60.373c66.347-66.773 99.84-154.027 99.84-241.493s-33.493-174.72-100.053-241.28zm-241.28 326.613c-47.147 0-85.333-38.187-85.333-85.333s38.187-85.333 85.333-85.333 85.333 38.187 85.333 85.333-38.187 85.333-85.333 85.333z"/><glyph unicode="" d="M725.333 512v149.333c0 23.467-19.2 42.667-42.667 42.667h-512c-23.467 0-42.667-19.2-42.667-42.667v-426.667c0-23.467 19.2-42.667 42.667-42.667h512c23.467 0 42.667 19.2 42.667 42.667v149.333l170.667-170.667v469.333l-170.667-170.667z"/><glyph unicode="" d="M896 682.667l-170.667-170.667v149.333c0 23.467-19.2 42.667-42.667 42.667h-263.68l477.013-477.013v455.68zm-756.267 192l-54.4-54.4 116.267-116.267h-30.933c-23.467 0-42.667-19.2-42.667-42.667v-426.667c0-23.467 19.2-42.667 42.667-42.667h512c8.747 0 16.427 3.2 23.253 7.893l135.893-135.893 54.187 54.4-756.267 756.267z"/><glyph unicode="" d="M170.667 704h-85.333v-597.333c0-47.147 38.187-85.333 85.333-85.333h597.333v85.333h-597.333v597.333zm682.666 170.667h-512c-47.147 0-85.333-38.187-85.333-85.333v-512c0-47.147 38.187-85.333 85.333-85.333h512c47.147 0 85.333 38.187 85.333 85.333v512c0 47.147-38.187 85.333-85.333 85.333zm-341.333-533.334v384l256-192-256-192z"/><glyph unicode="" d="M789.333 448c0 75.307-43.52 140.373-106.667 171.733v-343.68c63.147 31.573 106.667 96.64 106.667 171.947zm-576 128v-256h170.667l213.333-213.333v682.667l-213.333-213.333h-170.667z"/><glyph unicode="" d="M298.667 576v-256h170.667l213.333-213.333v682.667l-213.333-213.333h-170.667z"/><glyph unicode="" d="M704 448c0 75.307-43.52 140.373-106.667 171.733v-94.293l104.747-104.747c1.28 8.96 1.92 18.133 1.92 27.307zm106.667 0c0-40.107-8.747-77.867-23.04-112.64l64.64-64.64c27.733 53.12 43.733 113.28 43.733 177.28 0 182.613-127.787 335.36-298.667 374.187v-88.107c123.307-36.693 213.333-150.827 213.333-286.08zm-628.267 384l-54.4-54.4 201.6-201.6h-201.6v-256h170.667l213.333-213.333v286.933l181.547-181.547c-28.587-21.973-60.8-39.68-96.213-50.347v-88.107c58.667 13.44 112.213 40.32 157.227 77.227l87.04-86.827 54.4 54.4-713.6 713.6zm329.6-42.667l-89.173-89.173 89.173-89.173v178.347z"/><glyph unicode="" d="M128 576v-256h170.667l213.333-213.333v682.667l-213.333-213.333h-170.667zm576-128c0 75.307-43.52 140.373-106.667 171.733v-343.68c63.147 31.573 106.667 96.64 106.667 171.947zm-106.667 374.187v-88.107c123.307-36.693 213.333-150.827 213.333-286.08s-90.027-249.387-213.333-286.08v-88.107c170.88 38.827 298.667 191.36 298.667 374.187s-127.787 335.36-298.667 374.187z"/><glyph unicode="" d="M853.333 789.333h-682.667c-47.147 0-84.907-38.187-84.907-85.333l-.427-512c0-47.147 38.187-85.333 85.333-85.333h682.667c47.147 0 85.333 38.187 85.333 85.333v512c0 47.147-38.187 85.333-85.333 85.333zm-213.333-597.333h-469.333v170.667h469.333v-170.667zm0 213.333h-469.333v170.667h469.333v-170.667zm213.333-213.333h-170.667v384h170.667v-384z"/><glyph unicode="" d="M512 661.333v170.667h-426.667v-768h853.333v597.333h-426.667zm-256-512h-85.333v85.333h85.333v-85.333zm0 170.667h-85.333v85.333h85.333v-85.333zm0 170.667h-85.333v85.333h85.333v-85.333zm0 170.666h-85.333v85.333h85.333v-85.333zm170.667-512h-85.333v85.333h85.333v-85.333zm0 170.667h-85.333v85.333h85.333v-85.333zm0 170.667h-85.333v85.333h85.333v-85.333zm0 170.666h-85.333v85.333h85.333v-85.333zm426.666-512h-341.333v85.333h85.333v85.333h-85.333v85.333h85.333v85.333h-85.333v85.333h341.333v-426.667zm-85.333 341.334h-85.333v-85.333h85.333v85.333zm0-170.667h-85.333v-85.333h85.333v85.333z"/><glyph unicode="" d="M282.667 499.413c61.44-120.747 160.213-219.52 281.173-280.96l93.867 94.08c11.733 11.733 28.587 15.147 43.307 10.453 47.787-15.787 99.2-24.32 152.32-24.32 23.68 0 42.667-18.987 42.667-42.667v-149.333c0-23.68-18.987-42.667-42.667-42.667-400.64 0-725.333 324.693-725.333 725.333 0 23.68 19.2 42.667 42.667 42.667h149.333c23.68 0 42.667-18.987 42.667-42.667 0-53.12 8.533-104.533 24.32-152.32 4.693-14.72 1.28-31.573-10.453-43.307l-93.867-94.293z"/><glyph unicode="" d="M512 576c-68.48 0-134.4-10.667-196.267-30.72v-132.48c0-16.853-9.813-31.36-23.893-38.4-41.6-20.907-79.787-47.573-113.707-78.933-7.68-7.467-18.133-12.16-29.867-12.16s-22.4 4.693-30.08 12.587l-105.6 105.6c-7.893 7.893-12.587 18.56-12.587 30.293s4.693 22.4 12.587 30.293c129.92 123.52 305.92 199.253 499.413 199.253s369.493-75.733 499.413-199.253c7.893-7.68 12.587-18.56 12.587-30.293s-4.693-22.4-12.587-30.08l-105.6-105.6c-7.68-7.68-18.347-12.587-30.08-12.587-11.52 0-22.187 4.693-29.867 12.16-33.92 31.36-72.107 58.027-113.707 78.933-14.08 7.04-23.893 21.547-23.893 38.4v132.48c-61.867 19.84-127.787 30.507-196.267 30.507z"/><glyph unicode="" d="M384 746.667v-85.333h280.96l-494.293-494.293 60.373-60.373 494.293 494.293v-280.96h85.333v426.667z"/><glyph unicode="" d="M725.333 88.96l60.373 60.373-145.707 145.707-60.373-60.373 145.707-145.707zm-405.333 529.707h149.333v-238.293l-231.04-231.04 60.373-60.373 256 256v273.707h149.333l-192 192-192-192z"/><glyph unicode="" d="M835.627 661.333l-323.627-323.627-238.293 238.293h195.627v85.333h-341.333v-341.333h85.333v195.627l298.667-298.667 384 384z"/><glyph unicode="" d="M853.333 728.96l-60.373 60.373-494.293-494.293v280.96h-85.333v-426.667h426.667v85.333h-280.96z"/><glyph unicode="" d="M597.333 789.333l97.92-97.92-122.88-122.667 60.373-60.373 122.667 122.88 97.92-97.92v256zm-170.666 0h-256v-256l97.92 97.92 200.747-200.96v-323.627h85.333v359.04l-225.92 225.707z"/><glyph unicode="" d="M853.333 874.667h-682.667c-47.147 0-84.907-38.187-84.907-85.333l-.427-768 170.667 170.667h597.333c47.147 0 85.333 38.187 85.333 85.333v512c0 47.147-38.187 85.333-85.333 85.333zm-597.333-298.667h512v-85.333h-512v85.333zm341.333-213.333h-341.333v85.333h341.333v-85.333zm170.667 256h-512v85.333h512v-85.333z"/><glyph unicode="" d="M213.333 405.333h597.333v85.333h-597.333v-85.333zm-85.333-170.666h597.333v85.333h-597.333v-85.333zm170.667 426.666v-85.333h597.333v85.333h-597.333z"/><glyph unicode="" d="M938.24 789.333c0 47.147-37.76 85.333-84.907 85.333h-682.667c-47.147 0-85.333-38.187-85.333-85.333v-512c0-47.147 38.187-85.333 85.333-85.333h597.333l170.667-170.667-.427 768zm-170.24-426.666h-512v85.333h512v-85.333zm0 128h-512v85.333h512v-85.333zm0 128h-512v85.333h512v-85.333z"/><glyph unicode="" d="M853.333 960h-682.667v-85.333h682.667v85.333zm-682.666-1024h682.667v85.333h-682.667v-85.333zm682.666 853.333h-682.667c-47.147 0-85.333-38.187-85.333-85.333v-512c0-47.147 38.187-85.333 85.333-85.333h682.667c47.147 0 85.333 38.187 85.333 85.333v512c0 47.147-38.187 85.333-85.333 85.333zm-341.333-117.333c52.907 0 96-43.093 96-96 0-53.12-43.093-96-96-96s-96 42.88-96 96c0 52.907 43.093 96 96 96zm213.333-437.333h-426.667v64c0 71.04 142.293 106.667 213.333 106.667s213.333-35.627 213.333-106.667v-64z"/><glyph unicode="" d="M725.333 832h-42.667v-213.333h42.667v213.333zm-85.333-85.333h-85.333v42.667h85.333v42.667h-128v-128h85.333v-42.667h-85.333v-42.667h128v128zm128 85.333v-213.333h42.667v85.333h85.333v128h-128zm85.333-85.333h-42.667v42.667h42.667v-42.667zm0-448c-53.12 0-104.32 8.533-152.32 24.32-14.72 4.693-31.573 1.28-43.307-10.453l-93.867-94.08c-120.747 61.44-219.52 160.213-281.173 280.96l93.867 94.08c11.733 11.733 15.147 28.587 10.453 43.307-15.787 48-24.32 99.413-24.32 152.533 0 23.68-18.987 42.667-42.667 42.667h-149.333c-23.68 0-42.667-18.987-42.667-42.667 0-400.64 324.693-725.333 725.333-725.333 23.68 0 42.667 18.987 42.667 42.667v149.333c0 23.68-18.987 42.667-42.667 42.667z"/><glyph unicode="" d="M512 149.333c-47.147 0-85.333-38.187-85.333-85.333s38.187-85.333 85.333-85.333 85.333 38.187 85.333 85.333-38.187 85.333-85.333 85.333zm-256 768c-47.147 0-85.333-38.187-85.333-85.333s38.187-85.333 85.333-85.333 85.333 38.187 85.333 85.333-38.187 85.333-85.333 85.333zm0-256c-47.147 0-85.333-38.187-85.333-85.333s38.187-85.333 85.333-85.333 85.333 38.187 85.333 85.333-38.187 85.333-85.333 85.333zm0-256c-47.147 0-85.333-38.187-85.333-85.333s38.187-85.333 85.333-85.333 85.333 38.187 85.333 85.333-38.187 85.333-85.333 85.333zm512 341.334c47.147 0 85.333 38.187 85.333 85.333s-38.187 85.333-85.333 85.333-85.333-38.187-85.333-85.333 38.187-85.333 85.333-85.333zm-256-341.334c-47.147 0-85.333-38.187-85.333-85.333s38.187-85.333 85.333-85.333 85.333 38.187 85.333 85.333-38.187 85.333-85.333 85.333zm256 0c-47.147 0-85.333-38.187-85.333-85.333s38.187-85.333 85.333-85.333 85.333 38.187 85.333 85.333-38.187 85.333-85.333 85.333zm0 256c-47.147 0-85.333-38.187-85.333-85.333s38.187-85.333 85.333-85.333 85.333 38.187 85.333 85.333-38.187 85.333-85.333 85.333zm-256 0c-47.147 0-85.333-38.187-85.333-85.333s38.187-85.333 85.333-85.333 85.333 38.187 85.333 85.333-38.187 85.333-85.333 85.333zm0 256c-47.147 0-85.333-38.187-85.333-85.333s38.187-85.333 85.333-85.333 85.333 38.187 85.333 85.333-38.187 85.333-85.333 85.333z"/><glyph unicode="" d="M512 874.667c-235.733 0-426.667-190.933-426.667-426.667s190.933-426.667 426.667-426.667 426.667 190.933 426.667 426.667-190.933 426.667-426.667 426.667zm0-768c-188.587 0-341.333 152.747-341.333 341.333 0 78.933 27.093 151.253 71.893 209.067l478.507-478.507c-57.813-44.8-130.133-71.893-209.067-71.893zm269.44 132.266l-478.507 478.507c57.813 44.8 130.133 71.893 209.067 71.893 188.587 0 341.333-152.747 341.333-341.333 0-78.933-27.093-151.253-71.893-209.067z"/><glyph unicode="" d="M853.333 789.333h-682.667c-47.147 0-84.907-38.187-84.907-85.333l-.427-512c0-47.147 38.187-85.333 85.333-85.333h682.667c47.147 0 85.333 38.187 85.333 85.333v512c0 47.147-38.187 85.333-85.333 85.333zm0-170.666l-341.333-213.333-341.333 213.333v85.333l341.333-213.333 341.333 213.333v-85.333z"/><glyph unicode="" d="M896 704h-85.333v-384h-554.667v-85.333c0-23.467 19.2-42.667 42.667-42.667h469.333l170.667-170.667v640c0 23.467-19.2 42.667-42.667 42.667zm-170.667-256v384c0 23.467-19.2 42.667-42.667 42.667h-554.667c-23.467 0-42.667-19.2-42.667-42.667v-597.333l170.667 170.667h426.667c23.467 0 42.667 19.2 42.667 42.667z"/><glyph unicode="" d="M384 832l-170.667-170.24h128v-299.093h85.333v299.093h128l-170.667 170.24zm298.667-597.76v299.093h-85.333v-299.093h-128l170.667-170.24 170.667 170.24h-128z"/><glyph unicode="" d="M880.853 69.333l-698.667 698.667-54.187-54.4 118.613-118.613c-108.8-133.973-100.693-331.307 23.893-456.107 66.56-66.56 154.027-100.053 241.28-100.053 76.16 0 152.32 25.387 214.613 75.947l115.2-114.773 54.4 54.4-15.147 14.933zm-368.853 55.04c-68.48 0-132.693 26.667-180.907 74.88-48.427 48.427-75.093 112.64-75.093 181.12 0 56.32 18.347 109.653 51.627 153.813l204.373-204.587v-205.227zm0 618.027v-195.413l309.547-309.547c58.24 126.08 35.84 280.32-68.267 384.427l-241.28 241.28-158.08-158.08 60.373-60.373 97.707 97.707z"/></font>
</defs>
</svg>
